Death Stranding+DLC+АВТОАКТИВАЦИЯ

iTunes

iTunes

iTunes

1

iTunes

iTunes

iTunes

iTunes

iTunes

30
pack

$ от Little Big

ВАЖНО

!!Акция!!

Alien_RageХит недели

RePack

Resident Evil 21

ИГРА 18+

pack

RePack

jed

!!Акция!!

Alien_Rage

RePack

fifa19

RePack

Assassins Creed: Odyssey

RePack

NEED FOR SPEED™ PAYBACK

4 сезон

9 сезон

Бесстыжие 9 сезон

Все сериалы

все сериалы на PB.wtf

RePack

FAR CRY 5
  

Лев / Lion (Гарт Дэвис) [2016, драма, WEB-DL 1080p] MVO [Лицензия / iTunes] pb.wtf

Лев через торрент pb.wtf

Размер: 4.36 GB | Добавлен: 3 года 3 мес. назад | Торрент скачан:349 раз
Скачать  

16-03-2017 11:55 Лев Скачать торрент  

Лев / LionГод выпуска: 2016
Страна: США, Австралия, Великобритания
Жанр: драма
Продолжительность: 01:58:22
Перевод: Дубляж - [Лицензия / iTunes]
Субтитры: Английские

Режиссер: Гарт Дэвис

rating

В ролях:

Дев Патель, Николь Кидман, Руни Мара, Дэвид Уэнэм, Санни Павар, Абхишек Бхарате, Приянка Бозе, Кхуши Соланки, Шанкар Нисоде, Танништа Чаттерджи

Описание:

Мальчик из трущоб, Сару, потерялся в возрасте 5 лет. Ему удалось выжить и найти новый дом в Австралии. 25 лет спустя он чудом вернулся в родной дом и встретился с матерью.

Качество: WEB-DL 1080p
Формат: WMV
Видео кодек: H.264
Аудио кодек: AC3

Видео: 1912x796p (2.40:1), 23.976 fps, AVC MPEG-4 (H.264), High@L4.1 ~4503 kbps, 0.123 bit/pixel
Аудио#1: Русский: 48 kHz, AC3 Dolby Digital, 6 ch, ~384 kbps [Профессиональный (многоголосый, закадровый)]
Аудио#2: Английский: 48 kHz, AC3 Dolby Digital, 6 ch, ~384 kbps [Оригинал]
скриншот   скриншот   скриншот   скриншот  

General
Unique ID : 228855947653701586641231169550751466715 (0xAC2C0D60804083DE8E519A7F6C1184DB)
Complete name : F:VideoLion.2016.WEB-DL.1080.ExKinoRay.mkv
Format : Matroska
Format version : Version 4 / Version 2
File size : 4.36 GiB
Duration : 1 h 58 min
Overall bit rate : 5 274 kb/s
Encoded date : UTC 2017-03-16 00:52:09
Writing application : mkvmerge v8.3.0 ('Over the Horizon') 64bit
Writing library : libebml v1.3.1 + libmatroska v1.4.2

Video
ID : 1
Format : AVC
Format/Info : Advanced Video Codec
Format profile : High@L4
Format settings, CABAC : Yes
Format settings, ReFrames : 5 frames
Codec ID : V_MPEG4/ISO/AVC
Duration : 1 h 58 min
Bit rate : 4 503 kb/s
Width : 1 912 pixels
Height : 796 pixels
Display aspect ratio : 2.40:1
Frame rate mode : Constant
Frame rate : 23.976 FPS
Color space : YUV
Chroma subsampling : 4:2:0
Bit depth : 8 bits
Scan type : Progressive
Bits/(Pixel*Frame) : 0.123
Stream size : 3.72 GiB (85%)
Language : English
Default : Yes
Forced : No
Color range : Limited
Color primaries : BT.709
Transfer characteristics : BT.709
Matrix coefficients : BT.709

Audio #1
ID : 2
Format : AC-3
Format/Info : Audio Coding 3
Mode extension : CM (complete main)
Format settings, Endianness : Big
Codec ID : A_AC3
Duration : 1 h 58 min
Bit rate mode : Constant
Bit rate : 384 kb/s
Channel(s) : 6 channels
Channel positions : Front: L C R, Side: L R, LFE
Sampling rate : 48.0 kHz
Frame rate : 31.250 FPS (1536 spf)
Bit depth : 16 bits
Compression mode : Lossy
Stream size : 325 MiB (7%)
Title : iTunes
Language : Russian
Default : Yes
Forced : No

Audio #2
ID : 3
Format : AC-3
Format/Info : Audio Coding 3
Mode extension : CM (complete main)
Format settings, Endianness : Big
Codec ID : A_AC3
Duration : 1 h 58 min
Bit rate mode : Constant
Bit rate : 384 kb/s
Channel(s) : 6 channels
Channel positions : Front: L C R, Side: L R, LFE
Sampling rate : 48.0 kHz
Frame rate : 31.250 FPS (1536 spf)
Bit depth : 16 bits
Compression mode : Lossy
Stream size : 325 MiB (7%)
Title : Original
Language : English
Default : No
Forced : No

Text
ID : 4
Format : UTF-8
Codec ID : S_TEXT/UTF8
Codec ID/Info : UTF-8 Plain Text
Duration : 1 h 48 min
Bit rate : 25 b/s
Count of elements : 800
Stream size : 20.1 KiB (0%)
Title : Full
Language : English
Default : No
Forced : No

Menu
00:00:00.000 : en:1
00:02:36.000 : en:2
00:15:10.000 : en:3
00:30:47.000 : en:4
00:44:38.000 : en:5
00:56:48.000 : en:6
01:07:45.000 : en:7
01:20:03.000 : en:8
01:29:41.000 : en:9
01:39:08.000 : en:10
01:51:15.000 : en:11

pb.wtf



Скачать Лев через торрент http://s13.radikal.ru/i186/1703/3d/58250468d02a.jpg Скачать фильм Лев через торрент бесплантно в хорошем качестве Описание: Мальчик из трущоб, Сару, потерялся в возрасте 5 лет. Ему удалось выжить и найти новый дом в Австралии. 25 лет спустя он чудом ... 9.8 10 13
Торрент: Зарегистрирован [2017-03-16 11:55] · скачан: 349 раз
Статус: √ проверено
Размер: 4.36 GB
Как cкачать? Как скачать Лев через торрент | qTorrent

% Раздел Тема Автор DL S | L
T Фильмы (мультфильмы) cо спонсором показа (Новинки AVI/MKV) [ 5.09 GB ] Агент Лев / Le lion [2020 WEB-DL 1080p] MVO [AlphaProject] bober100 Скачать
4 | 0
T Фильмы (мультфильмы) cо спонсором показа (Новинки AVI/MKV) [ 3.93 GB ] Агент Лев / Le lion [2020 WEB-DL 720p] MVO [AlphaProject] bober100 Скачать
1 | 0
T Фильмы (мультфильмы) cо спонсором показа (Новинки AVI/MKV) [ 1.37 GB ] Агент Лев / Le lion [2020 WEB-DLRip] MVO [AlphaProject] bober100 Скачать
5 | 0
Иностранные мультфильмы [ 795 MB ] Король Лев / The Lion King [2019 мультфильм мюзикл HDRip] DUB [] bober100 Скачать
2 | 0
Ultra HD (UHD: 2K, 4K, 8K) [ 24.36 GB ] Король Лев / The Lion King [2019 мультфильм мюзикл UHD BDRip 2160p] DUB [] bober100 Скачать
4 | 0
3D Мультфильмы [ 13.45 GB ] Король Лев 3Д / The Lion King 3D [2019 мультфильм мюзикл BDRip 1080p] [Anamorph SideBySide] DUB [] bober100 Скачать
2 | 0
Зарубежные Мультфильмы (BDRip 1080p, 720p, Blu-ray, BD-Remux) [ 7.01 GB ] Король Лев / The Lion King [2019 мультфильм мюзикл BDRip-HEVC 1080p ] DUB [] bober100 Скачать
1 | 0

28-11-2019 20:33  

Отключить всю рекламу на сайте

16-03-2017 13:21 Лев Скачать торрент  

оценки смотрю очень высокие-забираем.спасибоpb.wtf



18-03-2017 04:10 Лев Скачать торрент  

Народ, кто посмотрел, отпишитесь как кино!pb.wtf



    Дорогой пользователь! Огромная просьба, поблагодарите релизера, оцените раздачу и оставьте свои комментарий, если Вы скачали Лев через торрент бесплатно! Внесите свою лепту в развитие PiratBit!
    Комментировать посты могут только пользователи прошедшие не сложную регистрацию
    Показать сообщения:    

    Лев через торрент
    Скачать бесплатно Лев
    Лев скачать торрент
    Лев смотреть онлайн
    Cкачать фильм Лев бесплатно
    Лев скачать торрент в хорошем качестве
    Лев смотреть онлайн бесплатно в хорошем качестве


    Вы не можете начинать темы
    Вы не можете отвечать на сообщения
    Вы не можете редактировать свои сообщения
    Вы не можете удалять свои сообщения
    Вы не можете голосовать в опросах
    Вы не можете прикреплять файлы к сообщениям
    Вы можете скачивать файлы