2 сезон

iTunes

1 сезон

1

iTunes

iTunes

iTunes

1 сезон

RePack

30

ИГРА 18+

pack

ВАЖНО

!!Акция!!

Alien_RageХит недели

RePack

MK11
pack

Забери бонус

RePack

jed

!!Акция!!

Alien_Rage

RePack

fifa19

RePack

Assassins Creed: Odyssey

RePack

NEED FOR SPEED™ PAYBACK

4 сезон

9 сезон

Бесстыжие 9 сезон

Все сериалы

все сериалы на PB.wtf

RePack

FAR CRY 5
  

Она / Elle (Пол Верховен) [2016, триллер, драма, комедия, BDRip 720p by msltel] DUB, AVO pb.wtf

Она через торрент pb.wtf

Размер: 5.45 GB | Добавлен: 3 года 7 мес. назад | Торрент скачан:120 раз
Скачать  

16-03-2017 12:44 Она Скачать торрент  

Название: Она
Оригинальное название: Elle
Год выпуска: 2016
Страна: Франция, Германия, Бельгия
Жанр: триллер, драма, комедия
Продолжительность: 02:10:44
Перевод: дублированный, авторский

Режиссёр: Пол Верховен

В ролях: Изабель Юппер, Лоран Лафитт, Анн Консиньи, Шарль Берлинг, Виржини Эфира, Жюдит Магр, Кристиан Беркель, Йонас Блоке, Алис Исааз, Вимала Понс, Рафаэль Ленгле, Артюр Мазе, Люка Призор, Уго Конзельманн, Стефан Бак, Хью Мартел, Энн Лорье, Николя Бокер

Описание: Мишель - состоятельная парижанка, владелица крупной компании по разработке видеоигр. С мужем в разводе. У сына своя взрослая жизнь. А у Мишель необременительный роман с мужем подруги. Однажды в её дом врывается мужчина в чёрном, жестоко избивает её и насилует. Когда он исчезает, Мишель не заявляет в полицию. Страшная история пробуждает в ней детские психологические травмы и скрытые инстинкты, связанные с её отцом, серийным убийцей. С этого момента она в каждом мужчине из своего окружения начинает видеть насильника. Она хочет найти его, но вовсе не для того, чтобы сдать полиции…



Качество: BDRip 720p
Формат: MKV
Видео: MPEG-4 AVC, 5858 Кбит/с, 1280x534, 24 кадра/с
Аудио 1: русский, AC3, 384 kbps, 6 ch, 48 kHz [дублированный]
Аудио 2: русский, AC3, 448 kbps, 6 ch, 48 kHz [авторский, Антон Карповский]
Аудио 3: французский, AC3, 448 kbps, 6 ch, 48 kHz [оригинал]
Субтитры: английские
Имеются неименованные главы/чаптеры.
Общее
Уникальный идентификатор : 185175530960457036256064654275304697271 (0x8B4F828FA6E6FE0C9FED4C2C243F2DB7)
Полное имя : D:\Video\Она.2016.BDRip.720p by msltel.mkv
Формат : Matroska
Версия формата : Version 4 / Version 2
Размер файла : 5,45 Гбайт
Продолжительность : 2 ч. 10 м.
Общий поток : 5965 Кбит/сек
Название фильма : Rip by msltel
Дата кодирования : UTC 2017-03-15 08:43:52
Программа кодирования : mkvmerge v8.2.0 ('World of Adventure') 64bit
Библиотека кодирования : libebml v1.3.1 + libmatroska v1.4.2

Видео
Идентификатор : 1
Формат : AVC
Формат/Информация : Advanced Video Codec
Профиль формата : High@L4.1
Параметр CABAC формата : Да
Параметр ReFrames формата : 9 кадров
Идентификатор кодека : V_MPEG4/ISO/AVC
Продолжительность : 2 ч. 10 м.
Битрейт : 4683 Кбит/сек
Ширина : 1280 пикселей
Высота : 534 пикселя
Соотношение сторон : 2,40:1
Режим частоты кадров : Постоянный
Частота кадров : 24,000 кадра/сек
Цветовое пространство : YUV
Субдискретизация насыщенности : 4:2:0
Битовая глубина : 8 бит
Тип развёртки : Прогрессивная
Бит/(Пиксели*Кадры) : 0.285
Размер потока : 4,28 Гбайт (79%)
Библиотека кодирования : x264 core 146 r2538 121396c
Настройки программы : cabac=1 / ref=9 / deblock=1:-1:-1 / analyse=0x3:0x113 / me=umh / subme=11 / psy=1 / psy_rd=1.00:0.15 / mixed_ref=1 / me_range=32 / chroma_me=1 / trellis=2 / 8x8dct=1 / cqm=0 / deadzone=21,11 / fast_pskip=0 / chroma_qp_offset=-3 / threads=6 / lookahead_threads=1 / sliced_threads=0 / nr=0 / decimate=1 / interlaced=0 / bluray_compat=0 / constrained_intra=0 / bframes=10 / b_pyramid=2 / b_adapt=2 / b_bias=0 / direct=1 / weightb=1 / open_gop=0 / weightp=2 / keyint=230 / keyint_min=23 / scenecut=40 / intra_refresh=0 / rc_lookahead=40 / rc=crf / mbtree=0 / crf=17.6 / qcomp=0.60 / qpmin=0 / qpmax=69 / qpstep=4 / vbv_maxrate=62500 / vbv_bufsize=78125 / crf_max=0.0 / nal_hrd=none / filler=0 / ip_ratio=1.40 / pb_ratio=1.30 / aq=1:1.00
Язык : French
Default : Да
Forced : Нет

Аудио #1
Идентификатор : 2
Формат : AC-3
Формат/Информация : Audio Coding 3
Параметр Endianness формата : Big
Идентификатор кодека : A_AC3
Продолжительность : 2 ч. 10 м.
Вид битрейта : Постоянный
Битрейт : 384 Кбит/сек
Каналы : 6 каналов
Расположение каналов : Front: L C R, Side: L R, LFE
Частота : 48,0 КГц
Частота кадров : 31,250 кадров/сек (1536 spf)
Битовая глубина : 16 бит
Метод сжатия : С потерями
Размер потока : 359 Мбайт (6%)
Заголовок : DUB
Язык : Russian
ServiceKind/String : Complete Main
Default : Да
Forced : Нет

Аудио #2
Идентификатор : 3
Формат : AC-3
Формат/Информация : Audio Coding 3
Параметр Endianness формата : Big
Идентификатор кодека : A_AC3
Продолжительность : 2 ч. 10 м.
Вид битрейта : Постоянный
Битрейт : 448 Кбит/сек
Каналы : 6 каналов
Расположение каналов : Front: L C R, Side: L R, LFE
Частота : 48,0 КГц
Частота кадров : 31,250 кадров/сек (1536 spf)
Битовая глубина : 16 бит
Метод сжатия : С потерями
Размер потока : 419 Мбайт (8%)
Заголовок : AVO (Антон Карповский)
Язык : Russian
ServiceKind/String : Complete Main
Default : Нет
Forced : Нет

Аудио #3
Идентификатор : 4
Формат : AC-3
Формат/Информация : Audio Coding 3
Параметр Endianness формата : Big
Идентификатор кодека : A_AC3
Продолжительность : 2 ч. 10 м.
Вид битрейта : Постоянный
Битрейт : 448 Кбит/сек
Каналы : 6 каналов
Расположение каналов : Front: L C R, Side: L R, LFE
Частота : 48,0 КГц
Частота кадров : 31,250 кадров/сек (1536 spf)
Битовая глубина : 16 бит
Метод сжатия : С потерями
Размер потока : 419 Мбайт (8%)
Заголовок : original
Язык : French
ServiceKind/String : Complete Main
Default : Нет
Forced : Нет

Текст
Идентификатор : 5
Формат : UTF-8
Идентификатор кодека : S_TEXT/UTF8
Идентификатор кодека/Информация : UTF-8 Plain Text
Продолжительность : 2 ч. 5 м.
Битрейт : 43 бит/сек
ElementCount : 1557
Размер потока : 39,8 Кбайт (0%)
Заголовок : английские
Язык : English
Default : Нет
Forced : Нет

Меню
00:00:00.000 : :Chapter 01
00:13:58.250 : :Chapter 02
00:22:22.916 : :Chapter 03
00:31:58.166 : :Chapter 04
00:42:11.666 : :Chapter 05
00:51:55.291 : :Chapter 06
01:01:11.000 : :Chapter 07
01:12:58.125 : :Chapter 08
01:25:19.707 : :Chapter 09
01:36:16.582 : :Chapter 10
01:45:27.416 : :Chapter 11
02:00:35.000 : :Chapter 12
02:10:44.833 : :Chapter 13
pb.wtf



Скачать Она через торрент http://hostpic.gq/img/2017-03/16/jrpd63aoq2tmo9e40gn0p4am5.jpg Скачать фильм Она через торрент бесплантно в хорошем качестве Описание: Мишель - состоятельная парижанка, владелица крупной компании по разработке видеоигр. С мужем в разводе. У сына своя взрослая ... 8.8 10 6
Info! Золотая раздача, скачанное не засчитывается.
Торрент: Зарегистрирован [2017-03-16 12:44] · скачан: 120 раз
Статус: √ проверено
Размер: 5.45 GB
Как cкачать? Как скачать Она через торрент | qTorrent

% Раздел Тема Автор DL S | L
Фильмы [HD 720p, 1080p] (Хороший звук DUB, MVO) [ 15.54 GB ] Она / Elle [2016 BDRip 1080p by msltel] DUB AVO msltel Скачать
1 | 0

28-11-2019 20:33  

Отключить всю рекламу на сайте

    Дорогой пользователь! Огромная просьба, поблагодарите релизера, оцените раздачу и оставьте свои комментарий, если Вы скачали Она через торрент бесплатно! Внесите свою лепту в развитие PiratBit!
    Комментировать посты могут только пользователи прошедшие не сложную регистрацию
    Показать сообщения:    

    Она через торрент
    Скачать бесплатно Она
    Она скачать торрент
    Она смотреть онлайн
    Cкачать фильм Она бесплатно
    Она скачать торрент в хорошем качестве
    Она смотреть онлайн бесплатно в хорошем качестве


    Вы не можете начинать темы
    Вы не можете отвечать на сообщения
    Вы не можете редактировать свои сообщения
    Вы не можете удалять свои сообщения
    Вы не можете голосовать в опросах
    Вы не можете прикреплять файлы к сообщениям
    Вы можете скачивать файлы