Ссылка на приватное зеркало нашего сайта всего за 1$. Внимание количество ограничено!!!

2 сезон

iTunes

1 сезон

1

2 сезон

2 сезон

iTunes

1 сезон

RePack

30

Ultimate

ВАЖНО

ИГРА 18+

pack

RePack

MK11
pack

Забери бонус

RePack

jed

!!Акция!!

Alien_Rage

RePack

fifa19

RePack

Assassins Creed: Odyssey

RePack

NEED FOR SPEED™ PAYBACK

4 сезон

9 сезон

Бесстыжие 9 сезон

Все сериалы

все сериалы на PB.wtf

RePack

FAR CRY 5
  

Легион / Legion / Сезон 1 / Серии 1-8 из 8 (Майкл Аппендаль, Дэнни Гордон, Ной Хоули) [2017, фантастика, боевик, драма, WEB-DL 1080p] MVO [FOX] pb.wtf

Легион через торрент pb.wtf

Размер: 16.23 GB | Добавлен: 3 года 7 мес. назад | Торрент скачан:98 раз
Скачать  

16-03-2017 22:56 Легион Скачать торрент  

Легион / LegionГод выпуска: 2017
Страна: США
Жанр: фантастика, боевик, драма
Всего серий: 8
Продолжительность: 8 x ~01:10:00
Перевод: Профессиональный (многоголосый) - | FOX
Субтитры: отсутствуют

Режиссер: Майкл Аппендаль, Дэнни Гордон, Ной Хоули

rating

В ролях:

Дэн Стивенс, Джин Смарт, МакКензи Грэй, Скотт Лоуренс, Кэтрин Аселтон, Джереми Харрис, Билл Ирвин, Рэйчел Келлер, Эмбер Мидфандер, Обри Плаза, Люк Росслер

Описание:

Дэвиду Хэллеру поставлен диагноз — множественное расстройство личности. Постепенно выясняется, что картины и голоса, которые он видит и слышит, вполне реальны, а не бред его воспаленного разума.
Сериал является спин-оффом «Людей Икс» о мутанте Легионе. По комиксам Дэвид Хэллер является сыном Чарльза Ксавье.

Качество: WEB-DL 1080p
Формат: MKV
Видео кодек: H.264
Аудио кодек: AC3

Видео: 1920x1080 (16:9), 25 fps, AVC (x264) High@L4, ~ 5208 kbps avg, 0.100 bit/pixel
Аудио#1: Rus 48.0 kHz, AC3, 2 ch ~192 Kbps avg
Аудио#2: Eng 48 kHz, AC3 Dolby Digital, 3/2 (L,C,R,l,r) + LFE ch, ~384 kbps

Рекламы нет.
Внимание! Раздача ведётся путём добавления новых серий; при каждом добавлении создаётся новый торрент. Чтобы начать докачку новой серии, пользователям необходимо сделать следующее:
(1) остановить скачивание,
(2) удалить старый торрент у себя из клиента (старые серии удалять не надо),
(3) скачать новый торрент и запустить его у себя в клиенте вместо старого, при этом указать клиенту путь в старую папку куда и должно происходить скачивание новых серий.

Ваш клиент при этом должен произвести хеширование (проверку) старой папки (если не производит сам - помогите ему сделать это), и будет докачивать только те серии которых у вас ещё нет. Старые серии при этом не удаляются, а продолжают раздаваться!

Eсли вы уже удалили старые серии, то предотвратить повторную закачку старых серий можно, отжав галочку в соответствующих местах при запуске нового торрента. По возможности, желательно не удалять старые серии как можно дольше, чтобы релизёр не столько продолжал раздавать старые серии, а смог сконцентрироваться на новых.
скриншот   скриншот   скриншот   скриншот   скриншот  

Общее
Уникальный идентификатор : 190640186671040439110430336938697744157 (0x8F6BF6E3A93EC5B39BA90484DE26DF1D)
Полное имя : C:\Legion (Season 01) FOX 1080\Legion.S01E01.HD1080p.FOX.(qqss44).mkv
Формат : Matroska
Версия формата : Version 2
Размер файла : 2,68 Гбайт
Продолжительность : 1 ч. 5 м.
Общий поток : 5901 Кбит/сек
Дата кодирования : UTC 2017-02-09 16:17:18
Программа кодирования : mkvmerge v5.8.0 ('No Sleep / Pillow') built on Sep 2 2012 15:37:04
Библиотека кодирования : libebml v1.2.3 + libmatroska v1.3.0

Видео
Идентификатор : 1
Формат : AVC
Формат/Информация : Advanced Video Codec
Профиль формата : High@L4
Параметр CABAC формата : Да
Параметр ReFrames формата : 4 кадра
Идентификатор кодека : V_MPEG4/ISO/AVC
Продолжительность : 1 ч. 5 м.
Битрейт : 5208 Кбит/сек
Ширина : 1920 пикселей
Высота : 1080 пикселей
Соотношение сторон : 16:9
Режим частоты кадров : Постоянный
Частота кадров : 25,000 кадров/сек
Цветовое пространство : YUV
Субдискретизация насыщенности : 4:2:0
Битовая глубина : 8 бит
Тип развёртки : Прогрессивная
Бит/(Пиксели*Кадры) : 0.100
Размер потока : 2,37 Гбайт (88%)
Язык : English
Default : Да
Forced : Нет
Цветовой диапазон : Limited
Основные цвета : BT.709
Характеристики трансфера : BT.709
Коэффициенты матрицы : BT.709

Аудио #1
Идентификатор : 2
Формат : AC-3
Формат/Информация : Audio Coding 3
Расширение режима : CM (complete main)
Параметр Endianness формата : Big
Идентификатор кодека : A_AC3
Продолжительность : 1 ч. 5 м.
Вид битрейта : Постоянный
Битрейт : 192 Кбит/сек
Каналы : 2 канала
Расположение каналов : Front: L R
Частота : 48,0 КГц
Метод сжатия : С потерями
Размер потока : 89,4 Мбайт (3%)
Default : Да
Forced : Нет

Аудио #2
Идентификатор : 3
Формат : AC-3
Формат/Информация : Audio Coding 3
Расширение режима : CM (complete main)
Параметр Endianness формата : Big
Идентификатор кодека : A_AC3
Продолжительность : 1 ч. 5 м.
Вид битрейта : Постоянный
Битрейт : 384 Кбит/сек
Каналы : 6 каналов
Расположение каналов : Front: L C R, Side: L R, LFE
Частота : 48,0 КГц
Метод сжатия : С потерями
Размер потока : 179 Мбайт (7%)
Язык : English
Default : Нет
Forced : Нет

pb.wtf



Скачать Легион через торрент http://s019.radikal.ru/i628/1702/b2/423800a2067c.jpg Скачать фильм Легион через торрент бесплантно в хорошем качестве Описание: Дэвиду Хэллеру поставлен диагноз — множественное расстройство личности. Постепенно выясняется, что картины и голоса, которые он ... 10 10 8
Info! Золотая раздача, скачанное не засчитывается.
Торрент: Зарегистрирован [2017-03-31 18:57] · скачан: 98 раз
Статус: √ проверено
Размер: 16.23 GB
Как cкачать? Как скачать Легион через торрент | qTorrent

% Раздел Тема Автор DL S | L
Зарубежные сериалы [ 31.46 GB ] Легион / Legion / Сезон: 1 / Серии: 1-8 из 8 [2017 BDRip 1080p] MVO [TVShows] bober100 Скачать
1 | 0
Зарубежные сериалы [ 10.1 GB ] Легион / Legion / Сезон: 3 / Серии: 1-8 из 8 [2019 WEB-DL 720p] [MVO] killermax2013 Скачать
1 | 0
Зарубежные сериалы [ 25.74 GB ] Легион / Legion / Сезон: 3 / Серии: 1-8 из 8 [2019 WEB-DL 1080p] MVO [LostFilm] bober100 Скачать
1 | 0
Зарубежные сериалы [ 25.76 GB ] Легион / Legion / Сезон: 3 / Серии: 1-8 из 8 [2019 WEB-DL 1080p] MVO [TVShows] bober100 Скачать
1 | 0
Зарубежные сериалы [ 5.2 GB ] Легион / Legion / Сезон: 3 / Серии: 1-8 из 8 [2019 . WEB-DLRip] MVO [LostFilm] bober100 Скачать
1 | 0
Зарубежные сериалы [ 46.36 GB ] Легион / Legion / Сезон: 1 / Серии: 1-8 из 8 [2017 WEBRip 1080p] MVO [LostFilm] bober100 Скачать
1 | 0
Зарубежные сериалы [ 1.58 GB ] Легион / Legion / Сезон: 3 / Серии: 1- из 8 [2019 WEB-DL 720p] [VO] killermax2013 Скачать
1 | 0


Последний раз редактировалось: bober100 (2017-03-31 18:57), всего редактировалось 1 раз

28-11-2019 20:33  

Отключить всю рекламу на сайте

24-03-2017 03:33 Легион Скачать торрент  

ну и как сериал?pb.wtf



    Дорогой пользователь! Огромная просьба, поблагодарите релизера, оцените раздачу и оставьте свои комментарий, если Вы скачали Легион через торрент бесплатно! Внесите свою лепту в развитие PiratBit!
    Комментировать посты могут только пользователи прошедшие не сложную регистрацию
    Показать сообщения:    

    Легион через торрент
    Скачать бесплатно Легион
    Легион скачать торрент
    Легион смотреть онлайн
    Cкачать фильм Легион бесплатно
    Легион скачать торрент в хорошем качестве
    Легион смотреть онлайн бесплатно в хорошем качестве


    Вы не можете начинать темы
    Вы не можете отвечать на сообщения
    Вы не можете редактировать свои сообщения
    Вы не можете удалять свои сообщения
    Вы не можете голосовать в опросах
    Вы не можете прикреплять файлы к сообщениям
    Вы можете скачивать файлы