Ссылка на приватное зеркало нашего сайта всего за 1$. Внимание количество ограничено!!!

2 сезон

iTunes

1 сезон

1

2 сезон

2 сезон

iTunes

1 сезон

RePack

30

Ultimate

ВАЖНО

ИГРА 18+

pack

RePack

MK11
pack

Забери бонус

RePack

jed

!!Акция!!

Alien_Rage

RePack

fifa19

RePack

Assassins Creed: Odyssey

RePack

NEED FOR SPEED™ PAYBACK

4 сезон

9 сезон

Бесстыжие 9 сезон

Все сериалы

все сериалы на PB.wtf

RePack

FAR CRY 5
  

Большой куш / Snatch / Сезон: 1 / Серии 1-10 из 10 (Лоуренс Гоф, Николас Рентон, Джеффри Сакс) [2017, Комедия, криминал, WEBRip] [MVO] (ColdFilm) pb.wtf

Большой куш через торрент pb.wtf

Размер: 4.76 GB | Добавлен: 3 года 8 мес. назад | Торрент скачан:212 раз
Скачать  

17-03-2017 09:16 Большой куш Скачать торрент  

Большой кушSnatch

Год выпуска: 2017
Страна: США, Великобритания
Жанр: Комедия, криминал
Продолжительность: 10x ~00:45:00
Перевод: Любительский (многоголосый закадровый) ColdFilm
Субтитры: отсутствуют

Режиссёр: Лоуренс Гоф, Николас Рентон, Джеффри Сакс

В ролях: Руперт Гринт, Люсьен Лависконт, Люк Паскуалино, Дугрей Скотт, Эд Вествик, Расс Бэйн, Клер Купер, Фиби Дайневор, Джо Херст и др.

Описание: Сюжет сосредоточится на группе молодых предприимчивых жуликов, наткнувшихся на грузовик, полный награбленного золота. Так герои оказываются втянутыми в мир элиты организованной преступности, где им придется на ходу учиться выживать, сталкиваясь с гангстерами, коррумпированными копами и боксерами-цыганами.



Качество: WEBRip
Формат: AVI
Видео: XviD, 720x400 (16:9), 100 fps, ~1250 kbps
Аудио: MP3, 48 kHz, 2 ch, 256 kbps
General
Complete name : E:\Snatch.S01.400p.WEB.ColdFilm.Ru\Snatch.S01E01.400p.WEB.ColdFilm.avi
Format : AVI
Format/Info : Audio Video Interleave
File size : 498 MiB
Duration : 44mn 8s
Overall bit rate : 1 577 Kbps
Writing application : Lavf57.40.101

Video
ID : 0
Format : MPEG-4 Visual
Format profile : Simple@L1
Format settings, BVOP : No
Format settings, QPel : No
Format settings, GMC : No warppoints
Format settings, Matrix : Default (H.263)
Codec ID : FMP4
Duration : 44mn 8s
Bit rate : 1 250 Kbps
Width : 720 pixels
Height : 400 pixels
Display aspect ratio : 16:9
Frame rate : 100.000 fps
Color space : YUV
Chroma subsampling : 4:2:0
Bit depth : 8 bits
Scan type : Progressive
Compression mode : Lossy
Bits/(Pixel*Frame) : 0.043
Stream size : 395 MiB (79%)
Writing library : Lavc57.48.101

Audio
ID : 1
Format : MPEG Audio
Format version : Version 1
Format profile : Layer 3
Mode : Joint stereo
Mode extension : MS Stereo
Codec ID : 55
Codec ID/Hint : MP3
Duration : 44mn 8s
Bit rate mode : Constant
Bit rate : 256 Kbps
Channel(s) : 2 channels
Sampling rate : 48.0 KHz
Compression mode : Lossy
Stream size : 80.8 MiB (16%)
Alignment : Aligned on interleaves
Writing library : LAME3.99.5
pb.wtf



Скачать Большой куш через торрент http://i91.fastpic.ru/big/2017/0317/0f/6434b0a65807e4b0b1a30aa81b6bf90f.jpg Скачать фильм Большой куш через торрент бесплантно в хорошем качестве Описание: Сюжет сосредоточится на группе молодых предприимчивых жуликов, наткнувшихся на грузовик, полный награбленного золота. Так герои ... 10 10 6
Торрент: Зарегистрирован [2017-03-17 09:16] · скачан: 212 раз
Статус: √ проверено
Размер: 4.76 GB
Как cкачать? Как скачать Большой куш через торрент | qTorrent

% Раздел Тема Автор DL S | L
Зарубежные сериалы [ 550 MB ] Большой куш / Snatch / Сезон: 2 / Серии: 1 из 10 [2018 WEBRip] [MVO] killermax2013 Скачать
1 | 0
Зарубежные сериалы [ 7.52 GB ] Большой куш / Snatch / Сезон: 2 / Серии: 1-10 из 10 [2018 WEBRip 720p] MVO [Jaskier] bober100 Скачать
1 | 0
Зарубежные сериалы [ 4.89 GB ] Большой куш / Snatch / Сезон: 2 / Серии: 1-10 из 10 [2018 WEBRip] MVO [Jaskier] bober100 Скачать
1 | 0
Зарубежные сериалы [ 12.43 GB ] Большой куш / Snatch / Сезон: 2 / Серии: 1-10 из 10 [2018 WEBRip 1080p] MVO [Jaskier] bober100 Скачать
1 | 0
Зарубежные сериалы [ 24.66 GB ] Большой куш / Snatch / Сезон: 1 / Серии: 1-10 из 10 [2017 WEB-DL 1080p] MVO [Jaskier] bober100 Скачать
1 | 0
Зарубежные сериалы [ 4.89 GB ] Большой куш / Snatch / Сезон: 1 / Серии: 1-10 из 10 [2017 WEB-DLRip] MVO [Jaskier] bober100 Скачать
1 | 0
Зарубежные сериалы [ 22.29 GB ] Большой куш / Snatch / Сезон: 2 / Серии: 1-10 из 10 [2018 WEB-DL 1080p] [MVO] killermax2013 Скачать
1 | 0

28-11-2019 20:33  

Отключить всю рекламу на сайте

17-03-2017 10:04 Большой куш Скачать торрент  

"боксерами-цыганами" прикольно надо будет посмотреть pb.wtf



17-03-2017 11:05 Большой куш Скачать торрент  

ireebok писал(а):

"боксерами-цыганами" прикольно надо будет посмотреть

ну так сериал же по мотивам известного одноименного фильмаpb.wtf



19-03-2017 16:21 Большой куш Скачать торрент  

ireebok писал(а):

"боксерами-цыганами" прикольно надо будет посмотреть

как сериал то?pb.wtf



    Дорогой пользователь! Огромная просьба, поблагодарите релизера, оцените раздачу и оставьте свои комментарий, если Вы скачали Большой куш через торрент бесплатно! Внесите свою лепту в развитие PiratBit!
    Комментировать посты могут только пользователи прошедшие не сложную регистрацию
    Показать сообщения:    

    Большой куш через торрент
    Скачать бесплатно Большой куш
    Большой куш скачать торрент
    Большой куш смотреть онлайн
    Cкачать фильм Большой куш бесплатно
    Большой куш скачать торрент в хорошем качестве
    Большой куш смотреть онлайн бесплатно в хорошем качестве


    Вы не можете начинать темы
    Вы не можете отвечать на сообщения
    Вы не можете редактировать свои сообщения
    Вы не можете удалять свои сообщения
    Вы не можете голосовать в опросах
    Вы не можете прикреплять файлы к сообщениям
    Вы можете скачивать файлы