Ссылка на приватное зеркало нашего сайта всего за 1$. Внимание количество ограничено!!!

2 сезон

iTunes

1 сезон

1

2 сезон

2 сезон

iTunes

1 сезон

RePack

30

Ultimate

ВАЖНО

ИГРА 18+

pack

RePack

MK11
pack

Забери бонус

RePack

jed

!!Акция!!

Alien_Rage

RePack

fifa19

RePack

Assassins Creed: Odyssey

RePack

NEED FOR SPEED™ PAYBACK

4 сезон

9 сезон

Бесстыжие 9 сезон

Все сериалы

все сериалы на PB.wtf

RePack

FAR CRY 5
  

Инкарнация / Incarnate (Брэд Пейтон) [2016, Ужасы, триллер, BDRemux 1080p] от ExKinoRay / iTunes pb.wtf

Инкарнация через торрент pb.wtf

Размер: 18.93 GB | Добавлен: 3 года 8 мес. назад | Торрент скачан:82 раза
Скачать  

17-03-2017 12:38 Инкарнация Скачать торрент  

Информация о фильме
Название: Инкарнация
Оригинальное название: Incarnate
Год выхода: 2016
Жанр: Ужасы, триллер
Страна: США
Студия: lumhouse Productions, Deep Undergrond Films, IM Global, WWE Studios
Продолжительность: 01:27:49
Перевод: Дублированный | iTunes

Режиссер: Брэд Пейтон

В ролях: Кэрис ван Хаутен, Аарон Экхарт, Дэвид Мазоуз, Каталина Сандино Морено, Эмджей Энтони, Мэттью Нэйбл, Бриэнн Хилл, Каролина Выдра, Кейр О’Доннелл, Марк Стегер

О фильме:

Он — не экзорцист. У него свои методы изгонять зло, поселившееся в людях. Но, проникнув в сознание 11-летнего мальчика, он понял, что никогда не сталкивался с таким сильным противником — древним и могущественным демоном, пришедшим из глубокого прошлого... Промедление в этой ситуации может привести к непоправимой трагедии, и доктор Эмбер без лишних раздумий добровольно помещает себя в кошмар с ужасающими последствиями…

rating

Качество: BDRemux 1080p
Формат: MKV
Видео: MPEG-4 AVC, 1920x1080, 27.6 Mbit/s, 23.976 fps
Аудио #01: 48 kHz, AC3, 5.1, 384 Kbps | Дублированный | iTunes | RUS |
Аудио #02: 48 kHz, TrueHD, 7.1, 3384 Kbps | Оригинал | ENG |
General

Unique ID : 202222141407570184839906331910241895864 (0x982291586C92E339AFAF4652344DC5B8)

Complete name : F:VideoIncarnate.2016.BDREMUX.1080p.ExKinoRay.mkv

Format : Matroska

Format version : Version 4 / Version 2

File size : 18.9 GiB

Duration : 1 h 26 min

Overall bit rate mode : Variable

Overall bit rate : 31.4 Mb/s

Encoded date : UTC 2017-03-17 11:37:34

Writing application : mkvmerge v8.3.0 ('Over the Horizon') 64bit

Writing library : libebml v1.3.1 + libmatroska v1.4.2

Video

ID : 1

Format : AVC

Format/Info : Advanced Video Codec

Format profile : High@L4.1

Format settings, CABAC : Yes

Format settings, ReFrames : 4 frames

Codec ID : V_MPEG4/ISO/AVC

Duration : 1 h 26 min

Bit rate mode : Variable

Bit rate : 27.6 Mb/s

Maximum bit rate : 30.0 Mb/s

Width : 1 920 pixels

Height : 1 080 pixels

Display aspect ratio : 16:9

Frame rate mode : Constant

Frame rate : 23.976 (24000/1001) FPS

Standard : NTSC

Color space : YUV

Chroma subsampling : 4:2:0

Bit depth : 8 bits

Scan type : Progressive

Bits/(Pixel*Frame) : 0.555

Stream size : 16.6 GiB (88%)

Language : English

Default : Yes

Forced : No

Color range : Limited

Color primaries : BT.709

Transfer characteristics : BT.709

Matrix coefficients : BT.709

Audio #1

ID : 2

Format : AC-3

Format/Info : Audio Coding 3

Mode extension : CM (complete main)

Format settings, Endianness : Big

Codec ID : A_AC3

Duration : 1 h 26 min

Bit rate mode : Constant

Bit rate : 384 kb/s

Channel(s) : 6 channels

Channel positions : Front: L C R, Side: L R, LFE

Sampling rate : 48.0 kHz

Frame rate : 31.250 FPS (1536 spf)

Bit depth : 16 bits

Compression mode : Lossy

Stream size : 237 MiB (1%)

Title : iTunes

Language : Russian

Default : Yes

Forced : No

Audio #2

ID : 3

Format : TrueHD

Codec ID : A_TRUEHD

Duration : 1 h 26 min

Bit rate mode : Variable

Bit rate : 3 384 kb/s

Maximum bit rate : 5 820 kb/s

Channel(s) : 8 channels

Channel positions : Front: L C R, Side: L R, Back: L R, LFE

Sampling rate : 96.0 kHz

Frame rate : 2 400.000 FPS (40 spf)

Compression mode : Lossless

Stream size : 2.04 GiB (11%)

Title : riginal

Language : English

Default : No

Forced : No

Menu

00:00:00.000 : en:00:00:00.000

00:06:08.910 : en:00:06:08.910

00:10:42.892 : en:00:10:42.892

00:14:44.467 : en:00:14:44.467

00:18:01.580 : en:00:18:01.580

00:22:12.790 : en:00:22:12.790

00:26:04.480 : en:00:26:04.480

00:29:52.708 : en:00:29:52.708

00:35:28.335 : en:00:35:28.335

00:40:51.449 : en:00:40:51.449

00:45:05.620 : en:00:45:05.620

00:49:24.962 : en:00:49:24.962

00:52:59.468 : en:00:52:59.468

00:56:32.306 : en:00:56:32.306

01:01:35.692 : en:01:01:35.692

01:06:31.362 : en:01:06:31.362

01:11:10.725 : en:01:11:10.725

01:18:54.730 : en:01:18:54.730
скриншот  скриншот  скриншот  
Релиз от: Автор релиза: pb.wtf



Скачать Инкарнация через торрент http://s011.radikal.ru/i316/1703/55/bb2c13c3e384.jpg Скачать фильм Инкарнация через торрент бесплантно в хорошем качестве О фильме:Он — не экзорцист. У него свои методы изгонять зло, поселившееся в людях. Но, проникнув в сознание 11-летнего мальчика, он понял, ... 9.5 10 4
Info! Золотая раздача, скачанное не засчитывается.
Торрент: Зарегистрирован [2017-03-17 12:38] · скачан: 82 раз
Статус: √ проверено
Размер: 18.93 GB
Как cкачать? Как скачать Инкарнация через торрент | qTorrent

28-11-2019 20:33  

Отключить всю рекламу на сайте

17-03-2017 13:09 Инкарнация Скачать торрент  

фильм не очень!pb.wtf



    Дорогой пользователь! Огромная просьба, поблагодарите релизера, оцените раздачу и оставьте свои комментарий, если Вы скачали Инкарнация через торрент бесплатно! Внесите свою лепту в развитие PiratBit!
    Комментировать посты могут только пользователи прошедшие не сложную регистрацию
    Показать сообщения:    

    Инкарнация через торрент
    Скачать бесплатно Инкарнация
    Инкарнация скачать торрент
    Инкарнация смотреть онлайн
    Cкачать фильм Инкарнация бесплатно
    Инкарнация скачать торрент в хорошем качестве
    Инкарнация смотреть онлайн бесплатно в хорошем качестве


    Вы не можете начинать темы
    Вы не можете отвечать на сообщения
    Вы не можете редактировать свои сообщения
    Вы не можете удалять свои сообщения
    Вы не можете голосовать в опросах
    Вы не можете прикреплять файлы к сообщениям
    Вы можете скачивать файлы