Ссылка на приватное зеркало нашего сайта всего за 1$. Внимание количество ограничено!!!

2 сезон

iTunes

1 сезон

1

2 сезон

2 сезон

iTunes

1 сезон

RePack

30

Новинка

ВАЖНО

ИГРА 18+

pack

RePack

MK11
pack

Забери бонус

RePack

jed

!!Акция!!

Alien_Rage

RePack

fifa19

RePack

Assassins Creed: Odyssey

RePack

NEED FOR SPEED™ PAYBACK

4 сезон

9 сезон

Бесстыжие 9 сезон

Все сериалы

все сериалы на PB.wtf

RePack

FAR CRY 5
  

Железный кулак / Iron Fist / Сезон: 1 / Серии 1-13 из 13 (Джон Дал, Фэррен Блэкберн, Ута Бризвитц) [2017, Фантастика, боевик, криминал, приключения, WEBRip 1080p] [MVO] (Newstudio) pb.wtf

Железный кулак через торрент pb.wtf

Размер: 80.43 GB | Добавлен: 3 года 7 мес. назад | Торрент скачан:32 раза
Скачать  

17-03-2017 22:05 Железный кулак Скачать торрент  

Железный кулакIron Fist

Год выпуска: 2017
Страна: США
Жанр: Фантастика, боевик, криминал, приключения
Продолжительность: 1x ~01:00:00
Перевод: Профессиональный (многоголосый закадровый) Newstudio
Субтитры: русские, английские

Режиссёр: Джон Дал, Фэррен Блэкберн, Ута Бризвитц

В ролях: Джессика Хенвик, Финн Джонс, Джессика Строуп, Розарио Доусон, Людовик Куто, Крэйг Джерати, Тихуана Рикс

Описание: Спустя годы после исчезновения Дэниэл Рэнд возвращается в Нью-Йорк и начинает борьбу с криминалом, используя свои невообразимые навыки кунг-фу и способность вызывать силу Железного кулака.



Качество: WEBRip 1080p
Формат: MKV
Видео: MPEG-4 AVC, ~ 15300 Кбит/с, 1920x1080, 23,976 fps
Аудио: AC3, 48 kHz, 6 ch, 384 kbps [MVO]
Аудио: AC3, 48 kHz, 6 ch, 384 kbps [ENG]
General
Unique ID : 252444818333590919507906095393886148992 (0xBDEB1A7E8B398722A7D98A8FCE9F9980)
Complete name : E:\Marvels.Iron.Fist.S01.1080p.WEBRip.Rus.Eng.sergiy_psp\Marvels.Iron.Fist.S01E01.1080p.WEBRip.Rus.Eng.sergiy_psp.mkv
Format : Matroska
Format version : Version 4 / Version 2
File size : 6.32 GiB
Duration : 56mn 11s
Overall bit rate : 16.1 Mbps
Encoded date : UTC 2017-03-19 02:39:35
Writing application : mkvmerge v9.9.0 ('Pick Up') 64bit
Writing library : libebml v1.3.4 + libmatroska v1.4.5

Video
ID : 1
Format : AVC
Format/Info : Advanced Video Codec
Format profile : High@L4.1
Format settings, CABAC : Yes
Format settings, ReFrames : 4 frames
Codec ID : V_MPEG4/ISO/AVC
Duration : 56mn 11s
Bit rate : 15.0 Mbps
Width : 1 920 pixels
Height : 1 080 pixels
Display aspect ratio : 16:9
Frame rate mode : Constant
Frame rate : 23.976 fps
Color space : YUV
Chroma subsampling : 4:2:0
Bit depth : 8 bits
Scan type : Progressive
Bits/(Pixel*Frame) : 0.302
Stream size : 5.89 GiB (93%)
Title : Marvels.Iron.Fist.S01E01.1080p.WEBRip.Rus.Eng.sergiy_psp
Writing library : x264 core 148 r2638 7599210
Encoding settings : cabac=1 / ref=4 / deblock=1:-3:-3 / analyse=0x3:0x133 / me=umh / subme=10 / psy=1 / psy_rd=1.00:0.00 / mixed_ref=1 / me_range=48 / chroma_me=1 / trellis=2 / 8x8dct=1 / cqm=0 / deadzone=21,11 / fast_pskip=0 / chroma_qp_offset=-2 / threads=16 / lookahead_threads=2 / sliced_threads=0 / nr=0 / decimate=0 / interlaced=0 / bluray_compat=0 / constrained_intra=0 / bframes=9 / b_pyramid=0 / b_adapt=2 / b_bias=0 / direct=3 / weightb=1 / open_gop=0 / weightp=2 / keyint=240 / keyint_min=23 / scenecut=40 / intra_refresh=0 / rc=crf / mbtree=0 / crf=19.0 / qcomp=0.60 / qpmin=10 / qpmax=51 / qpstep=4 / ip_ratio=1.40 / pb_ratio=1.30 / aq=3:0.70
Language : English
Default : Yes
Forced : No

Audio #1
ID : 2
Format : AC-3
Format/Info : Audio Coding 3
Mode extension : CM (complete main)
Format settings, Endianness : Big
Codec ID : A_AC3
Duration : 56mn 11s
Bit rate mode : Constant
Bit rate : 384 Kbps
Channel(s) : 6 channels
Channel positions : Front: L C R, Side: L R, LFE
Sampling rate : 48.0 KHz
Compression mode : Lossy
Stream size : 154 MiB (2%)
Title : Newstudio 5.1
Language : Russian
Default : Yes
Forced : No

Audio #2
ID : 3
Format : AC-3
Format/Info : Audio Coding 3
Mode extension : CM (complete main)
Format settings, Endianness : Big
Codec ID : A_AC3
Duration : 56mn 11s
Bit rate mode : Constant
Bit rate : 384 Kbps
Channel(s) : 6 channels
Channel positions : Front: L C R, Side: L R, LFE
Sampling rate : 48.0 KHz
Compression mode : Lossy
Delay relative to video : 50ms
Stream size : 154 MiB (2%)
Title : Original 5.1
Language : English
Default : No
Forced : No

Text #1
ID : 4
Format : ASS
Codec ID : S_TEXT/ASS
Codec ID/Info : Advanced Sub Station Alpha
Compression mode : Lossless
Title : rus sub (forced)
Language : Russian
Default : Yes
Forced : No

Text #2
ID : 5
Format : UTF-8
Codec ID : S_TEXT/UTF8
Codec ID/Info : UTF-8 Plain Text
Title : eng sub (full)
Language : English
Default : No
Forced : No

Text #3
ID : 6
Format : UTF-8
Codec ID : S_TEXT/UTF8
Codec ID/Info : UTF-8 Plain Text
Title : eng sub (full) SDH
Language : English
Default : No
Forced : No
Внимание! Раздача ведётся путём добавления новых серий; при каждом добавлении создаётся новый торрент. Чтобы начать докачку новой серии, пользователям необходимо сделать следующее:
(1) остановить скачивание,
(2) удалить старый торрент у себя из клиента (старые серии удалять не надо),
(3) скачать новый торрент и запустить его у себя в клиенте вместо старого, при этом указать клиенту путь в старую папку куда и должно происходить скачивание новых серий.
Ваш клиент при этом должен произвести хеширование (проверку) старой папки (если не производит сам - помогите ему сделать это), и будет докачивать только те серии которых у вас ещё нет. Старые серии при этом не удаляются, а продолжают раздаваться!
Eсли вы уже удалили старые серии, то предотвратить повторную закачку старых серий можно, отжав галочку в соответствующих местах при запуске нового торрента. По возможности, желательно не удалять старые серии как можно дольше чтобы релизёр не столько продолжал раздавать старые серии, а смог сконцентрироваться на новых.
pb.wtf



Скачать Железный кулак через торрент https://i89.fastpic.ru/big/2017/0317/25/456a14694ff3725fd5a90cfa3aea7b25.png Скачать фильм Железный кулак через торрент бесплантно в хорошем качестве Описание: Спустя годы после исчезновения Дэниэл Рэнд возвращается в Нью-Йорк и начинает борьбу с криминалом, используя свои невообразимые ... 8.8 10 8
Info! Золотая раздача, скачанное не засчитывается.
Торрент: Зарегистрирован [2017-04-11 02:45] · скачан: 32 раз
Статус: √ проверено
Размер: 80.43 GB
Как cкачать? Как скачать Железный кулак через торрент | qTorrent

% Раздел Тема Автор DL S | L
Зарубежные сериалы [ 13.57 GB ] Железный кулак / Iron Fist / Сезон 1 / Серии 1-13 из 13 [2017 WEBRip-AVC] MVO [NewStudio] GEKADOL Скачать
1 | 0
Зарубежные сериалы [ 8 GB ] Железный кулак / Iron Fist / 1 сезон / Серии 1-13 из 13 [2017 WEBRip] MVO [LostFilm] bober100 Скачать
1 | 0
Зарубежные сериалы [ 13.48 GB ] Железный кулак / Iron Fist / Сезон 1 / Серии 1-13 из 13 [2017 WEBRip-AVC] MVO [BaibaKo] GEKADOL Скачать
1 | 0
Зарубежные сериалы [ 6.81 GB ] Железный кулак / Iron Fist / Сезон: 1 / Серии 1-13 из 13 [2017 WEBRip] [MVO] killermax2013 Скачать
1 | 0
Зарубежные сериалы [ 8 GB ] Железный кулак / Iron Fist / Сезон 1 / Серии 1-13 из 13 [2017 WEB-DLRip] MVO [NewStudio] bober100 Скачать
1 | 0
Зарубежные сериалы [ 9.54 GB ] Железный кулак / Iron Fist / Сезон 1 / Серии 1-13 из 13 [2017 WEBRip] MVO [IdeaFilm] bober100 Скачать
1 | 0


Последний раз редактировалось: killermax2013 (2017-04-11 02:45), всего редактировалось 1 раз

28-11-2019 20:33  

Отключить всю рекламу на сайте

20-03-2017 18:29 Железный кулак Скачать торрент  

+3-8pb.wtf



10-04-2017 19:26 Железный кулак Скачать торрент  

ОБНОВИ УЖЕ!!!pb.wtf



11-04-2017 02:46 Железный кулак Скачать торрент  

+9-13pb.wtf



    Дорогой пользователь! Огромная просьба, поблагодарите релизера, оцените раздачу и оставьте свои комментарий, если Вы скачали Железный кулак через торрент бесплатно! Внесите свою лепту в развитие PiratBit!
    Комментировать посты могут только пользователи прошедшие не сложную регистрацию
    Показать сообщения:    

    Железный кулак через торрент
    Скачать бесплатно Железный кулак
    Железный кулак скачать торрент
    Железный кулак смотреть онлайн
    Cкачать фильм Железный кулак бесплатно
    Железный кулак скачать торрент в хорошем качестве
    Железный кулак смотреть онлайн бесплатно в хорошем качестве


    Вы не можете начинать темы
    Вы не можете отвечать на сообщения
    Вы не можете редактировать свои сообщения
    Вы не можете удалять свои сообщения
    Вы не можете голосовать в опросах
    Вы не можете прикреплять файлы к сообщениям
    Вы можете скачивать файлы