Ссылка на приватное зеркало нашего сайта всего за 1$. Внимание количество ограничено!!!

2 сезон

iTunes

1 сезон

1

2 сезон

2 сезон

iTunes

1 сезон

RePack

30

Ultimate

ВАЖНО

ИГРА 18+

pack

RePack

MK11
pack

Забери бонус

RePack

jed

!!Акция!!

Alien_Rage

RePack

fifa19

RePack

Assassins Creed: Odyssey

RePack

NEED FOR SPEED™ PAYBACK

4 сезон

9 сезон

Бесстыжие 9 сезон

Все сериалы

все сериалы на PB.wtf

RePack

FAR CRY 5
  

Железный кулак / Iron Fist / Сезон 1 / Серии 1-13 из 13 (Джон Дал / John Dahl, Фэррен Блэкберн / Farren Blackburn, Ута Бризвитц / Uta Briesewitz) [2017 , США, фантастика, боевик, криминал, WEBRip-AVC] MVO [NewStudio] pb.wtf

Железный кулак через торрент pb.wtf

Размер: 13.57 GB | Добавлен: 3 года 8 мес. назад | Торрент скачан:102 раза
Скачать  

18-03-2017 01:36 Железный кулак Скачать торрент  


Железный кулак / Iron Fist



  • Год выпуска: 2017
  • Страна: США
  • Жанр: фантастика, боевик, криминал, приключения
  • Продолжительность: 00:55:02 (Серия)
  • Перевод: Профессиональный многоголосый
  • Субтитры: русские,
  • Режиссер: Джон Дал / John Dahl, Фэррен Блэкберн / Farren Blackburn, Ута Бризвитц / Uta Briesewitz
  • В ролях:

    Финн Джонс (Daniel Rand), Джессика Хенвик (Colleen Wing), Джессика Строуп (Joy Meachum), Дэвид Уэнэм (Harold Meachum), Розарио Доусон (Claire Temple), Рамон Фернандес (Kevin Singleton), Хосе Баэс (Mental Patient), Людовик Куто (Drunk Wall Street Man), Тоби Николс (Young Daniel Rand), Крэйг Джерати (Ringmaster), Donté Grey (Caleb), Доа Моа


  • Спустя годы после исчезновения Дэниэл Рэнд возвращается в Нью-Йорк и начинает борьбу с криминалом, используя свои невообразимые навыки кунг-фу и способность вызывать силу Железного кулака.
  • Рейтинг:



  • Качество: WEBRip-AVC
  • Формат: :MPEG-4
  • Видео кодек: AVC
  • Аудио кодек: AC3
  • Видео: 1024x576 (16:9), 2000 kbps, 24 fps, 0,141 bpp
  • Аудио №1: русский / 5.1 / 48 kHz / 384 kbps / 16 bit |[NewStudio]|
  • Аудио №2: английский / 5.1 / 48 kHz / 384 kbps / 16 bit
  • Релиз от: GEKADOL

    Внимание! Раздача ведётся путём добавления новых серий; при каждом добавлении создаётся новый торрент. Чтобы начать докачку новой серии, пользователям необходимо сделать следующее:
    (1) остановить скачивание,
    (2) удалить старый торрент у себя из клиента (старые серии удалять не надо),
    (3) скачать новый торрент и запустить его у себя в клиенте вместо старого, при этом указать клиенту путь в старую папку куда и должно происходить скачивание новых серий.
    Ваш клиент при этом должен произвести хеширование (проверку) старой папки (если не производит сам - помогите ему сделать это), и будет докачивать только те серии которых у вас ещё нет. Старые серии при этом не удаляются, а продолжают раздаваться!
    Eсли вы уже удалили старые серии, то предотвратить повторную закачку старых серий можно, отжав галочку в соответствующих местах при запуске нового торрента. По возможности, желательно не удалять старые серии как можно дольше чтобы релизёр не столько продолжал раздавать старые серии, а смог сконцентрироваться на новых.

    General
    Complete name : H:\Железный Кулак (Сезон 1. Marvel's Iron Fist)\Marvel's.Iron.Fist.s01e01.WEBRip-AVC.NewStudio.TV.mp4
    Format : MPEG-4
    Format profile : Base Media
    Codec ID : isom (isom/iso2/avc1/mp41)
    File size : 1.06 GiB
    Duration : 55 min
    Overall bit rate mode : Variable
    Overall bit rate : 2 760 kb/s
    Writing application : XviD4PSP 7.0.366 DAILY
    HDVideo : Yes
    encoding_info : MATROSKA / WEBM > MP4 Произвольный / H264 > X264 CBR 2000kbps HQ / AC3 > AC3 CBR 384kbps / AC3 > AC3 CBR 384kbps

    Video
    ID : 1
    Format : AVC
    Format/Info : Advanced Video Codec
    Format profile : High@L4.1
    Format settings, CABAC : Yes
    Format settings, ReFrames : 4 frames
    Codec ID : avc1
    Codec ID/Info : Advanced Video Coding
    Duration : 54 min
    Bit rate : 2 000 kb/s
    Width : 1 024 pixels
    Height : 576 pixels
    Display aspect ratio : 16:9
    Frame rate mode : Constant
    Frame rate : 24.000 FPS
    Color space : YUV
    Chroma subsampling : 4:2:0
    Bit depth : 8 bits
    Scan type : Progressive
    Bits/(Pixel*Frame) : 0.141
    Stream size : 784 MiB (72%)
    Writing library : x264 core 148 r2762M 90a61ec
    Encoding settings : cabac=1 / ref=3 / deblock=1:-1:-1 / analyse=0x3:0x133 / me=hex / subme=7 / psy=1 / psy_rd=1.00:0.20 / mixed_ref=1 / me_range=16 / chroma_me=1 / trellis=1 / 8x8dct=1 / cqm=0 / deadzone=21,11 / fast_pskip=1 / chroma_qp_offset=-3 / threads=5 / lookahead_threads=1 / sliced_threads=0 / nr=0 / decimate=1 / interlaced=0 / bluray_compat=0 / constrained_intra=0 / bframes=3 / b_pyramid=2 / b_adapt=2 / b_bias=0 / direct=3 / weightb=1 / open_gop=0 / weightp=2 / keyint=240 / keyint_min=24 / scenecut=40 / intra_refresh=0 / rc_lookahead=40 / rc=cbr / mbtree=1 / bitrate=2000 / ratetol=1.0 / qcomp=0.60 / qpmin=0 / qpmax=69 / qpstep=4 / vbv_maxrate=2000 / vbv_bufsize=30000 / nal_hrd=none / filler=0 / ip_ratio=1.40 / aq=1:1.00

    Audio #1
    ID : 2
    Format : AC-3
    Format/Info : Audio Coding 3
    Mode extension : CM (complete main)
    Format settings, Endianness : Big
    Codec ID : ac-3
    Duration : 54 min
    Bit rate mode : Constant
    Bit rate : 384 kb/s
    Channel(s) : 6 channels
    Channel positions : Front: L C R, Side: L R, LFE
    Sampling rate : 48.0 kHz
    Frame rate : 31.250 FPS (1536 spf)
    Bit depth : 16 bits
    Compression mode : Lossy
    Stream size : 150 MiB (14%)
    Title : NewStudio.TV / NewStudio.TV
    Language : Russian
    Default : Yes
    Alternate group : 1

    Audio #2
    ID : 3
    Format : AC-3
    Format/Info : Audio Coding 3
    Mode extension : CM (complete main)
    Format settings, Endianness : Big
    Codec ID : ac-3
    Duration : 54 min
    Bit rate mode : Constant
    Bit rate : 384 kb/s
    Channel(s) : 6 channels
    Channel positions : Front: L C R, Side: L R, LFE
    Sampling rate : 48.0 kHz
    Frame rate : 31.250 FPS (1536 spf)
    Bit depth : 16 bits
    Compression mode : Lossy
    Stream size : 150 MiB (14%)
    Language : English
    Default : No
    Alternate group : 1

    Text
    ID : 4
    Format : Timed Text
    Muxing mode : sbtl
    Codec ID : tx3g
    Duration : 55 min
    Bit rate mode : Variable
    Bit rate : 0 b/s
    Stream size : 172 Bytes (0%)
    Language : Russian
    Default : Yes
    Forced : No
    Alternate group : 3



    Внимание! В сериале присутствуют ненормативная лексика!

    Скриншоты:
    скриншот   скриншот   скриншот   скриншот   скриншот   скриншот   скриншот  
    скриншот  

    Раздача ведётся путём добавления новых серий. Добавлена 13 серия (22.03.2017).Просьба перекачать торрент файл.

    pb.wtf



  • Скачать Железный кулак через торрент http://pic1.kartinco.top/images/11/1usw8.jpg Скачать фильм Железный кулак через торрент бесплантно в хорошем качестве qw.png Спустя годы после исчезновения Дэниэл Рэнд возвращается в Нью-Йорк и начинает борьбу с криминалом, используя свои невообразимые ... 10 10 10
    Info! Золотая раздача, скачанное не засчитывается.
    Торрент: Зарегистрирован [2017-03-22 00:07] · скачан: 102 раз
    Статус: √ проверено
    Размер: 13.57 GB
    Как cкачать? Как скачать Железный кулак через торрент | qTorrent

    % Раздел Тема Автор DL S | L
    Зарубежные сериалы [ 8 GB ] Железный кулак / Iron Fist / 1 сезон / Серии 1-13 из 13 [2017 WEBRip] MVO [LostFilm] bober100 Скачать
    1 | 0
    Зарубежные сериалы [ 80.43 GB ] Железный кулак / Iron Fist / Сезон: 1 / Серии 1-13 из 13 [2017 WEBRip 1080p] [MVO] killermax2013 Скачать
    1 | 0
    Зарубежные сериалы [ 13.48 GB ] Железный кулак / Iron Fist / Сезон 1 / Серии 1-13 из 13 [2017 WEBRip-AVC] MVO [BaibaKo] GEKADOL Скачать
    1 | 0
    Зарубежные сериалы [ 6.81 GB ] Железный кулак / Iron Fist / Сезон: 1 / Серии 1-13 из 13 [2017 WEBRip] [MVO] killermax2013 Скачать
    1 | 0
    Зарубежные сериалы [ 8 GB ] Железный кулак / Iron Fist / Сезон 1 / Серии 1-13 из 13 [2017 WEB-DLRip] MVO [NewStudio] bober100 Скачать
    1 | 0
    Зарубежные сериалы [ 9.54 GB ] Железный кулак / Iron Fist / Сезон 1 / Серии 1-13 из 13 [2017 WEBRip] MVO [IdeaFilm] bober100 Скачать
    1 | 0

    28-11-2019 20:33  

    Отключить всю рекламу на сайте

    15-10-2017 13:10 Железный кулак Скачать торрент  

    Где СКОРОСТЬ!?!?!?!? 100 килобит нет даже!!!! вы че издеваетесь!?pb.wtf



      Дорогой пользователь! Огромная просьба, поблагодарите релизера, оцените раздачу и оставьте свои комментарий, если Вы скачали Железный кулак через торрент бесплатно! Внесите свою лепту в развитие PiratBit!
      Комментировать посты могут только пользователи прошедшие не сложную регистрацию
      Показать сообщения:    

      Железный кулак через торрент
      Скачать бесплатно Железный кулак
      Железный кулак скачать торрент
      Железный кулак смотреть онлайн
      Cкачать фильм Железный кулак бесплатно
      Железный кулак скачать торрент в хорошем качестве
      Железный кулак смотреть онлайн бесплатно в хорошем качестве


      Вы не можете начинать темы
      Вы не можете отвечать на сообщения
      Вы не можете редактировать свои сообщения
      Вы не можете удалять свои сообщения
      Вы не можете голосовать в опросах
      Вы не можете прикреплять файлы к сообщениям
      Вы можете скачивать файлы