Доктор Стрэндж

Лицензия

Добыча

MVO

Дом дракона

1 сезон

Тор

Лицензия

Мэверик

Лицензия

Там, где раки поют

MVO

Властелин колец

1 сезон

Ultimate

pack

Рекомендуем

30

Repack

ВАЖНО

ВАЖНО

Ghostwire

RePack

jed

RePack

nioh2

RePack

RDR2

RePack

NEED FOR SPEED™ PAYBACK

RePack

скачать торрент

Кинопоиск HD

Острые козырьки 6 сезон

6 сезон

FAR CRY 6

RePack

скачать торрент

Лицензия

скачать торрент

MVO

1

1 сезон

скачать торрент

1 сезон

скачать торрент

Лицензия

  

Опыт реконструкции / 1-2 серии из 2 (Виталий Воробьёв) [2014, детектив, HDTVRip]

Опыт реконструкции через торрент pb.wtf

Размер: 1.17 GB | Добавлен: 5 лет 6 мес. назад | Торрент скачан:72 раза
Смотреть онлайн | Скачать   

18-03-2017 07:16 Опыт реконструкции Скачать торрент  

Опыт реконструкции
Год выпуска: 2014
Страна: Россия
Жанр: детектив
Продолжительность: 2 х ~ 00:50:00
Субтитры: отсутствуют



Режиссер: Виталий Воробьёв

В ролях:

Никита Зверев, Андрей Финягин, Дана Агишева, Кирилл Плетнёв, Агния Дитковските

Описание:

Эксцентричный следователь Симаков (Кирилл Плетнев) расследует убийство некоего Бражникова (Андрей Финягин). Покойный слыл сибаритом, свободным художником, был не слишком разборчив в связях и жил явно не по средствам. Убийство похоже на обычную «бытовуху»: к Симакову с повинной приходит лучший друг покойного Истратов (Никита Зверев), приревновавший его к своей молодой жене Даше (Дарья Муцениеце) и затеявший драку, после который Бражников найден мертвым. Истратов – успешный хирург и заботливый муж, Даша – явно не образец супружеской добродетели. Мотив и участники налицо, дело кажется раскрытым. Но у Симакова свои методы работы, которые одновременно восхищают и отталкивают его коллег, в первую очередь – молодого криминалиста Юлю (Агния Дитковските). Чтобы найти виновных, он проводит свой знаменитый «опыт реконструкции».

Качество: HDTVRip
Формат: AVI
Видео кодек: XviD
Аудио кодек: AC3

Видео: 720x400 (1.80:1), 25 fps, XviD build 73 ~1500 kbps avg, 0.21 bit/pixel
Аудио#1: 48 kHz, AC3 Dolby Digital, 2/0 (L,R) ch, ~192 kbps
скриншот   скриншот   скриншот   скриншот  

Общее
Полное имя : D:\Opyt.rekonstrukcii.2014.HDTVRip.Files-x\01.Opyt.rekonstrukcii.2014.HDTVRip.Files-x.avi
Формат : AVI
Формат/Информация : Audio Video Interleave
Размер файла : 600 Мбайт
Продолжительность : 49 м. 43 с.
Общий поток : 1687 Кбит/сек
Программа кодирования : VirtualDubMod 1.5.10.3 | www.virtualdub-fr.org || (build 2550/release)
Библиотека кодирования : VirtualDubMod build 2550/release

Видео
Идентификатор : 0
Формат : MPEG-4 Visual
Профиль формата : Advanced [email protected]
Параметр BVOP формата : 1
Параметр QPel формата : Нет
Параметр GMC формата : Без точки перехода
Параметр матрицы формата : Выборочная
Идентификатор кодека : XVID
Идентификатор кодека/Подсказка : XviD
Продолжительность : 49 м. 43 с.
Битрейт : 1486 Кбит/сек
Ширина : 720 пикселей
Высота : 400 пикселей
Соотношение сторон : 16:9
Частота кадров : 25,000 кадров/сек
Цветовое пространство : YUV
Субдискретизация насыщенности : 4:2:0
Битовая глубина : 8 бит
Тип развёртки : Прогрессивная
Метод сжатия : С потерями
Бит/(Пиксели*Кадры) : 0.206
Размер потока : 528 Мбайт (88%)
Библиотека кодирования : XviD 73

Аудио
Идентификатор : 1
Формат : AC-3
Формат/Информация : Audio Coding 3
Расширение режима : CM (complete main)
Параметр Endianness формата : Big
Идентификатор кодека : 2000
Продолжительность : 49 м. 43 с.
Вид битрейта : Постоянный
Битрейт : 192 Кбит/сек
Каналы : 2 канала
Расположение каналов : Front: L R
Частота : 48,0 КГц
Частота кадров : 31,250 кадров/сек (1536 spf)
Метод сжатия : С потерями
Размер потока : 68,3 Мбайт (11%)
Выравнивание : Разделение по промежуткам
Продолжительность промежутка : 40 мс. (1,00 видеокадр)
Время предзагрузки промежутка : 500 мс.




Скачать Опыт реконструкции через торрент http://s019.radikal.ru/i637/1703/8c/b380f25d32b2.png Скачать, смотреть онлайн Опыт реконструкции бесплантно в хорошем качестве Описание: Эксцентричный следователь Симаков (Кирилл Плетнев) расследует убийство некоего Бражникова (Андрей Финягин). Покойный слыл ... 10 10 4
Торрент: Зарегистрирован [2017-03-18 07:16] · скачан: 72 раз
Статус: √ проверено
Размер: 1.17 GB
Как cкачать? Как скачать Опыт реконструкции через торрент | UTorrent

28-11-2019 20:33  


Отключить вcю реклaмy на сайте, в т.ч. и в плеере онлайн просмотра!

    Дорогой пользователь! Огромная просьба, поблагодарите релизера, оцените раздачу и оставьте свои комментарий, если Вы скачали Опыт реконструкции через торрент бесплатно!!
    Комментировать посты могут только пользователи прошедшие не сложную регистрацию
    Показать сообщения:    


    Опыт реконструкции через торрент
    Скачать бесплатно Опыт реконструкции
    Опыт реконструкции скачать торрент
    Опыт реконструкции смотреть онлайн
    Cкачать фильм Опыт реконструкции бесплатно
    Опыт реконструкции скачать торрент в хорошем качестве
    Опыт реконструкции смотреть онлайн бесплатно в хорошем качестве
    Вы не можете начинать темы
    Вы не можете отвечать на сообщения
    Вы не можете редактировать свои сообщения
    Вы не можете удалять свои сообщения
    Вы не можете голосовать в опросах
    Вы не можете прикреплять файлы к сообщениям
    Вы можете скачивать файлы