Всегда рабочее зеркало просто перед .vidak.icu напиши любое слово или цифру, Пример http://9dm.vidak.icu

>

7.4

iTunes

7.4

2 сезон

9.4

1 сезон

1

7.4

2 сезон

7.2

iTunes

6.0

MVO

13

6.1

iTunes

8.3

Пиратка

30

ULTIMATE

pack

9.9

Лицензия

ВАЖНО

ИГРА 18+

pack

7.3

RePack

MK11

7.7

RePack

jed

7.8

RePack

fifa19

8.5

RePack

RDR2

RePack

NEED FOR SPEED™ PAYBACK

1 сезон

9 сезон

Бесстыжие 9 сезон

Все сериалы

все сериалы на PB.wtf

RePack

FAR CRY 5

Anonymous, доброй ночи, мы катастрофически не успеваем собрать деньги на оплату серверов, помогите нам пожалуйста 5,10,15р., для нас важна любая помощь . В качестве благодарности мы отключим Вам всю рекламу на сайте (укажите свой ник в строку Ваше имя)!

×
  
Magnet ссылка

Синг Стрит / Sing Street (Джон Карни) [2016, драма, мелодрама, комедия, музыкальный, BDRip 1080p] [AVO] (М. Яроцкий) pb.wtf

Синг Стрит через торрент pb.wtf

Размер: 12.44 GB | Добавлен: 4 года 10 мес. назад | Торрент скачан:39 раз
Смотреть онлайн Синг Стрит | Скачать    Ребята, помогите собрать деньги на оплату серверов!!!

18-03-2017 13:42 Синг Стрит Скачать торрент  

Синг Стрит / Sing Street
Год выпуска: 2016
Страна: Ирландия, Великобритания, США
Студия: Cosmo Films, Distressed Films, FilmNation Entertainment, FilmWave, Likely Story, PalmStar Media
Жанр: Драма, Мелодрама, Комедия, Музыкальный
Продолжительность: 01:45:25
Озвучивание:: Авторское (одноголосое) [М. Яроцкий]
Cубтитры: Русские (полные, форсированные [на песни]), английские (full, SDH)

Режиссер: Джон Карни

В ролях: Эйдан Гиллен, Мария Дойл Кеннеди, Джек Рейнор, Люси Бойнтон, Келли Торнтон, Лидия МакГиннесс, Кайл Брэдли Дональдсон, Фердия Уолш-Пило, Марк МакКенна, Падриг Дж. Данн

Описание: Ностальгическая музыкальная драма о взрослении. Когда экономический кризис 1980-х ударяет по семье Конора, его переводят из престижной частной школы в государственную. Подросток сталкивается с грубостью и невежеством новой среды и, кроме того, влюбляется в недосягаемую красавицу. Желая впечатлить девушку, Конор собирает рок-группу.

Релиз -- автор-

Тип релиза: BDRip 1080p
Контейнер: MKV
Видео: MPEG-4 AVC, 13.4 Mбит/с, 1920x804, 23.976 fps
Аудио: DTS, 48.0 KHz, 6 ch, 1510 Kbps, CBR (AVO)
Аудио: AC3, 48.0 KHz, 6 ch, 448 Kbps, CBR (AVO)
Аудио: DTS, 48.0 KHz, 6 ch, 1510 Kbps, CBR (English)

Цитата:

Перевод Михаила Яроцкого доступен благодаря: iVov4ik
Работа со звуком: Переводман

Внимание! Однократно присутствует ненормативное выражение!

General
Unique ID : 172908290077011687025508954225664581300 (0x8214ECE3AF971FC092E802D3EECFDEB4)
Complete name : F:\Video\Sing.Street.2016.BDRip.1080p.ExKinoRay.mkv
Format : Matroska
Format version : Version 4 / Version 2
File size : 12.4 GiB
Duration : 1 h 45 min
Overall bit rate : 16.9 Mb/s
Encoded date : UTC 2017-03-18 12:43:40
Writing application : mkvmerge v8.3.0 ('Over the Horizon') 64bit
Writing library : libebml v1.3.1 + libmatroska v1.4.2

Video
ID : 1
Format : AVC
Format/Info : Advanced Video Codec
Format profile : High@L4.1
Format settings, CABAC : Yes
Format settings, ReFrames : 5 frames
Codec ID : V_MPEG4/ISO/AVC
Duration : 1 h 45 min
Bit rate : 13.4 Mb/s
Width : 1 920 pixels
Height : 804 pixels
Display aspect ratio : 2.40:1
Frame rate mode : Constant
Frame rate : 23.976 (24000/1001) FPS
Color space : YUV
Chroma subsampling : 4:2:0
Bit depth : 8 bits
Scan type : Progressive
Bits/(Pixel*Frame) : 0.363
Stream size : 9.89 GiB (79%)
Writing library : x264 core 129 r2245 bc13772
Encoding settings : cabac=1 / ref=5 / deblock=1:-3:-3 / analyse=0x3:0x133 / me=umh / subme=11 / psy=1 / psy_rd=1.05:0.05 / mixed_ref=1 / me_range=64 / chroma_me=1 / trellis=2 / 8x8dct=1 / cqm=0 / deadzone=21,11 / fast_pskip=0 / chroma_qp_offset=-3 / threads=6 / lookahead_threads=1 / sliced_threads=0 / nr=0 / decimate=1 / interlaced=0 / bluray_compat=0 / constrained_intra=0 / bframes=8 / b_pyramid=2 / b_adapt=2 / b_bias=0 / direct=3 / weightb=1 / open_gop=0 / weightp=2 / keyint=250 / keyint_min=23 / scenecut=40 / intra_refresh=0 / rc_lookahead=60 / rc=2pass / mbtree=1 / bitrate=13428 / ratetol=1.0 / qcomp=0.60 / qpmin=0 / qpmax=69 / qpstep=4 / cplxblur=20.0 / qblur=0.5 / vbv_maxrate=40000 / vbv_bufsize=30000 / nal_hrd=none / ip_ratio=1.40 / aq=1:0.80
Language : English
Default : Yes
Forced : No

Audio #1
ID : 2
Format : DTS
Format/Info : Digital Theater Systems
Mode : 16
Format settings, Endianness : Big
Codec ID : A_DTS
Duration : 1 h 45 min
Bit rate mode : Constant
Bit rate : 1 509 kb/s
Channel(s) : 6 channels
Channel positions : Front: L C R, Side: L R, LFE
Sampling rate : 48.0 kHz
Frame rate : 93.750 FPS (512 spf)
Bit depth : 24 bits
Compression mode : Lossy
Stream size : 1.11 GiB (9%)
Title : AVO [kyberpunk]
Language : Russian
Default : Yes
Forced : No

Audio #2
ID : 3
Format : AC-3
Format/Info : Audio Coding 3
Mode extension : CM (complete main)
Format settings, Endianness : Big
Codec ID : A_AC3
Duration : 1 h 45 min
Bit rate mode : Constant
Bit rate : 448 kb/s
Channel(s) : 6 channels
Channel positions : Front: L C R, Side: L R, LFE
Sampling rate : 48.0 kHz
Frame rate : 31.250 FPS (1536 spf)
Bit depth : 16 bits
Compression mode : Lossy
Stream size : 338 MiB (3%)
Title : AVO [kyberpunk]
Language : Russian
Default : No
Forced : No

Audio #3
ID : 4
Format : DTS
Format/Info : Digital Theater Systems
Mode : 16
Format settings, Endianness : Big
Codec ID : A_DTS
Duration : 1 h 45 min
Bit rate mode : Constant
Bit rate : 1 509 kb/s
Channel(s) : 6 channels
Channel positions : Front: L C R, Side: L R, LFE
Sampling rate : 48.0 kHz
Frame rate : 93.750 FPS (512 spf)
Bit depth : 24 bits
Compression mode : Lossy
Stream size : 1.11 GiB (9%)
Title : Original
Language : English
Default : No
Forced : No

Text #1
ID : 5
Format : UTF-8
Codec ID : S_TEXT/UTF8
Codec ID/Info : UTF-8 Plain Text
Duration : 1 h 33 min
Bit rate : 23 b/s
Count of elements : 283
Stream size : 16.0 KiB (0%)
Title : Песни (Перевод М.Яроцкого)
Language : Russian
Default : Yes
Forced : No

Text #2
ID : 6
Format : UTF-8
Codec ID : S_TEXT/UTF8
Codec ID/Info : UTF-8 Plain Text
Duration : 1 h 39 min
Bit rate : 93 b/s
Count of elements : 1574
Stream size : 68.1 KiB (0%)
Title : Full
Language : Russian
Default : No
Forced : No

Text #3
ID : 7
Format : UTF-8
Codec ID : S_TEXT/UTF8
Codec ID/Info : UTF-8 Plain Text
Duration : 1 h 39 min
Bit rate : 72 b/s
Count of elements : 1872
Stream size : 52.6 KiB (0%)
Title : Full
Language : English
Default : No
Forced : No

Text #4
ID : 8
Format : UTF-8
Codec ID : S_TEXT/UTF8
Codec ID/Info : UTF-8 Plain Text
Duration : 1 h 44 min
Bit rate : 75 b/s
Count of elements : 2092
Stream size : 57.9 KiB (0%)
Title : SDH
Language : English
Default : No
Forced : No

Menu
00:00:00.000 : en:00:00:00.000
00:05:00.967 : en:00:05:00.967
00:09:40.747 : en:00:09:40.747
00:14:58.314 : en:00:14:58.314
00:20:49.707 : en:00:20:49.707
00:26:50.776 : en:00:26:50.776
00:32:27.279 : en:00:32:27.279
00:36:50.583 : en:00:36:50.583
00:43:37.782 : en:00:43:37.782
00:49:09.321 : en:00:49:09.321
00:55:03.050 : en:00:55:03.050
01:00:29.459 : en:01:00:29.459
01:04:38.625 : en:01:04:38.625
01:08:57.508 : en:01:08:57.508
01:14:55.783 : en:01:14:55.783
01:20:44.006 : en:01:20:44.006
01:27:05.554 : en:01:27:05.554
01:31:35.907 : en:01:31:35.907
01:36:47.010 : en:01:36:47.010
01:41:17.154 : en:01:41:17.154
pb.wtf



Скачать Синг Стрит через торрент http://i91.fastpic.ru/big/2017/0212/61/32e6f09bde335dd52d236f2dc7908361.jpg Скачать, смотреть онлайн Синг Стрит бесплантно в хорошем качестве Описание: Ностальгическая музыкальная драма о взрослении. Когда экономический кризис 1980-х ударяет по семье Конора, его переводят из ... 5 10 1
Торрент: Зарегистрирован [2017-03-18 13:42] · скачан: 39 раз
Статус: √ проверено
Размер: 12.44 GB
Как cкачать? Как скачать Синг Стрит через торрент | UTorrent

% Раздел Тема Автор DL S | L
Фильмы с авторской озвучкой [ 1.46 GB ] Синг Стрит / Sing Street [2016 музыкальный BDRip] [AVO] killermax2013 Скачать
1 | 0
T Фильмы 2016 [DVDrip, WEB-DLRip, HDrip] (DUB, MVO) [ 1.46 GB ] Синг Стрит / Sing Street [2016 Мело Музыкальный HDRip Любительский [СПД]] DJASFUL Скачать
1 | 1
Фильмы без перевода [ 22.21 GB ] Синг Стрит / Sing Street [2016 BD Remux [Оригинал] smaster Скачать
1 | 0

28-11-2019 20:33  

Отключить всю рекламу на сайте

    Дорогой пользователь! Огромная просьба, поблагодарите релизера, оцените раздачу и оставьте свои комментарий, если Вы скачали Синг Стрит через торрент бесплатно!
    Комментировать посты могут только пользователи прошедшие не сложную регистрацию
    Показать сообщения:    

    Синг Стрит через торрент
    Скачать бесплатно Синг Стрит
    Синг Стрит скачать торрент
    Синг Стрит смотреть онлайн
    Cкачать фильм Синг Стрит бесплатно
    Синг Стрит скачать торрент в хорошем качестве
    Синг Стрит смотреть онлайн бесплатно в хорошем качестве


    Вы не можете начинать темы
    Вы не можете отвечать на сообщения
    Вы не можете редактировать свои сообщения
    Вы не можете удалять свои сообщения
    Вы не можете голосовать в опросах
    Вы не можете прикреплять файлы к сообщениям
    Вы можете скачивать файлы