Ссылка на приватное зеркало нашего сайта всего за 1$. Внимание количество ограничено!!!

2 сезон

iTunes

1 сезон

1

iTunes

iTunes

iTunes

1 сезон

RePack

30

ИГРА 18+

pack

ВАЖНО

!!Акция!!

Alien_RageХит недели

RePack

MK11
pack

Забери бонус

RePack

jed

!!Акция!!

Alien_Rage

RePack

fifa19

RePack

Assassins Creed: Odyssey

RePack

NEED FOR SPEED™ PAYBACK

4 сезон

9 сезон

Бесстыжие 9 сезон

Все сериалы

все сериалы на PB.wtf

RePack

FAR CRY 5
  

Коммивояжер / Forushande (Асгар Фархади) [2016, драма, триллер, BDRip 720p] MVO [Лицензия / iTunes] pb.wtf

Коммивояжер через торрент pb.wtf

Размер: 7.68 GB | Добавлен: 3 года 7 мес. назад | Торрент скачан:123 раза
Скачать  

18-03-2017 14:42 Коммивояжер Скачать торрент  

Коммивояжер / Forushande

Год выпуска: 2016
Страна: Иран, Франция
Жанр: драма, триллер

Продолжительность: 02:03:35
Перевод: Профессиональный многоголосый [Лицензия / iTunes]
Субтитры: French (Forced), French (Full)
Режиссер: Асгар Фархади
В ролях:

Таране Алидости (Rana Etesami), Шахаб Хоссейни (Emad Etesami), Бабак Карими (Babak), Farid Sajjadi Hosseini (Naser), Mina Sadati (Sanam), Mojtaba Pirzadeh (Majid), Emad Emami (Ali), Sam Valipour (Sadra), Maral Bani Adam (Kati), Shirin Aghakashi (Esmat), Mehdi Koushki (Siavash), Sahra Asadollahe (Mojgan)
Описание:
Отношения Эмада и Раны безоблачны, и у них много планов на будущее. Днем Эмад преподает в школе, а по вечерам супруги увлеченно репетируют спектакль по пьесе Артура Миллера «Смерть коммивояжера». Однако семейная драма разворачивается не только на сцене, но и в реальной жизни, когда их новый дом из тихой гавани превращается в место преступления.
Рейтинг:

MPAA: PG-13 - Детям до 13 лет просмотр не желателен
Качество: BDRip 720p
Формат: MKV
Видео: AVC, 1280x692 (1.85:1), 7000 kbps, 23,976 fps, 0,330 bpp
Аудио №1: русский / AC3 / 5.1 / 48 kHz / 384 kbps / |MVO, iTunes|
Аудио №2: французский / DTS / 5.1 / 48 kHz / 1509 kbps / 24 bit
Навигация по главам: есть
Релиз от:
General
Unique ID : 219973282806422095698973381351953423655 (0xA57D502FFC5C9EA990CB82A90C345D27)
Complete name : E:\Forushande.2016.BDRip.720p.ExKinoRay.mkv
Format : Matroska
Format version : Version 4 / Version 2
File size : 7.68 GiB
Duration : 2 h 3 min
Overall bit rate : 8 897 kb/s
Encoded date : UTC 2017-03-17 13:30:19
Writing application : mkvmerge v8.3.0 ('Over the Horizon') 64bit
Writing library : libebml v1.3.1 + libmatroska v1.4.2

Video
ID : 1
Format : AVC
Format/Info : Advanced Video Codec
Format profile : High@L4.1
Format settings, CABAC : Yes
Format settings, ReFrames : 9 frames
Codec ID : V_MPEG4/ISO/AVC
Duration : 2 h 3 min
Bit rate : 7 000 kb/s
Width : 1 280 pixels
Height : 692 pixels
Display aspect ratio : 1.85:1
Frame rate mode : Constant
Frame rate : 23.976 (24000/1001) FPS
Color space : YUV
Chroma subsampling : 4:2:0
Bit depth : 8 bits
Scan type : Progressive
Bits/(Pixel*Frame) : 0.330
Stream size : 5.89 GiB (77%)
Writing library : x264 core 148 r2744 b97ae06
Encoding settings : cabac=1 / ref=9 / deblock=1:-3:-3 / analyse=0x3:0x133 / me=umh / subme=11 / psy=1 / psy_rd=1.02:0.00 / mixed_ref=1 / me_range=32 / chroma_me=1 / trellis=2 / 8x8dct=1 / cqm=0 / deadzone=21,11 / fast_pskip=0 / chroma_qp_offset=-2 / threads=12 / lookahead_threads=2 / sliced_threads=0 / slices=4 / nr=0 / decimate=0 / interlaced=0 / bluray_compat=0 / constrained_intra=0 / bframes=8 / b_pyramid=2 / b_adapt=2 / b_bias=0 / direct=3 / weightb=1 / open_gop=0 / weightp=2 / keyint=250 / keyint_min=23 / scenecut=40 / intra_refresh=0 / rc_lookahead=40 / rc=2pass / mbtree=0 / bitrate=7000 / ratetol=1.0 / qcomp=0.60 / qpmin=0 / qpmax=69 / qpstep=4 / cplxblur=20.0 / qblur=0.5 / vbv_maxrate=50000 / vbv_bufsize=62500 / nal_hrd=none / filler=0 / ip_ratio=1.30 / pb_ratio=1.20 / aq=3:0.80 / zones=1,169,b=2/1130,4505,b=1.7/4506,6800,b=1.2/14100,19123,b=1.2/29674,30703,b=1.25/33211,38494,b=1.3/41497,42641,b=1.2/50487,51898,b=1.15/64988,72388,b=1.3/77482,80023,b=1.35/85851,86518,b=1.3/109474,111073,b=1.3/139839,140568,b=1.4/140999,145475,b=1.35/171737,173190,b=1.2
Language : English
Default : Yes
Forced : No
Color range : Limited
Matrix coefficients : BT.709

Audio #1
ID : 2
Format : AC-3
Format/Info : Audio Coding 3
Mode extension : CM (complete main)
Format settings, Endianness : Big
Codec ID : A_AC3
Duration : 2 h 3 min
Bit rate mode : Constant
Bit rate : 384 kb/s
Channel(s) : 6 channels
Channel positions : Front: L C R, Side: L R, LFE
Sampling rate : 48.0 kHz
Frame rate : 31.250 FPS (1536 spf)
Compression mode : Lossy
Stream size : 339 MiB (4%)
Title : iTunes
Language : Russian
Default : Yes
Forced : No

Audio #2
ID : 3
Format : DTS
Format/Info : Digital Theater Systems
Mode : 16
Format settings, Endianness : Big
Codec ID : A_DTS
Duration : 2 h 3 min
Bit rate mode : Constant
Bit rate : 1 509 kb/s
Channel(s) : 6 channels
Channel positions : Front: L C R, Side: L R, LFE
Sampling rate : 48.0 kHz
Frame rate : 93.750 FPS (512 spf)
Bit depth : 24 bits
Compression mode : Lossy
Stream size : 1.30 GiB (17%)
Title : Original
Language : French
Default : No
Forced : No

Text #1
ID : 4
Format : UTF-8
Codec ID : S_TEXT/UTF8
Codec ID/Info : UTF-8 Plain Text
Title : Forced
Language : French
Default : No
Forced : No

Text #2
ID : 5
Format : UTF-8
Codec ID : S_TEXT/UTF8
Codec ID/Info : UTF-8 Plain Text
Title : Full
Language : French
Default : No
Forced : No

Menu
00:00:00.000 : en:00:00:00.000
00:09:48.171 : en:00:09:48.171
00:23:05.342 : en:00:23:05.342
00:34:07.295 : en:00:34:07.295
00:45:11.208 : en:00:45:11.208
00:57:17.476 : en:00:57:17.476
01:04:20.523 : en:01:04:20.523
01:13:16.851 : en:01:13:16.851
01:22:28.443 : en:01:22:28.443
01:38:01.876 : en:01:38:01.876
01:49:04.872 : en:01:49:04.872
02:01:13.850 : en:02:01:13.850
pb.wtf



Скачать Коммивояжер через торрент http://i3.imageban.ru/out/2017/03/18/d39d094b304c48ea7daa7ca6c763dde6.jpg Скачать фильм Коммивояжер через торрент бесплантно в хорошем качестве Описание: Отношения Эмада и Раны безоблачны, и у них много планов на будущее. Днем Эмад преподает в школе, а по вечерам супруги увлеченно ... 9 10 2
Info! Золотая раздача, скачанное не засчитывается.
Торрент: Зарегистрирован [2017-03-18 14:42] · скачан: 123 раз
Статус: √ проверено
Размер: 7.68 GB
Как cкачать? Как скачать Коммивояжер через торрент | qTorrent

% Раздел Тема Автор DL S | L
Фильмы 2016 [DVDrip, WEB-DLRip, HDrip] (DUB, MVO) [ 746 MB ] Коммивояжер / Forushande [2016 HDRip] MVO [ BD RUS] bober100 Скачать
1 | 0
Фильмы 2016 [DVDrip, WEB-DLRip, HDrip] (DUB, MVO) [ 2.18 GB ] Коммивояжер / Forushande [2016 BDRip] MVO [ BD RUS] bober100 Скачать
2 | 0
Фильмы [HD 720p, 1080p] (Хороший звук DUB, MVO) [ 10.4 GB ] Коммивояжер / Forushande [2016 BDRip 720p от TeamHD & NNNB] 2xMVO _denis_100 Скачать
1 | 0
Фильмы 2016 [DVDrip, WEB-DLRip, HDrip] (DUB, MVO) [ 1.46 GB ] Коммивояжер / Forushande [2016 BDRip] MVO [ BD RUS] bober100 Скачать
1 | 0
Фильмы [HD 720p, 1080p] (Хороший звук DUB, MVO) [ 17.93 GB ] Коммивояжер / Forushande [2016 BDRip 1080p] MVO -Lexx- Скачать
1 | 0
Фильмы (Blu-ray, BD-Remux, HDDVD) [ 32.28 GB ] Коммивояжер / Forushande ]2016 BDRemux 1080p] от ExKinoRay / MVO / Russian Mafia Скачать
1 | 0

28-11-2019 20:33  

Отключить всю рекламу на сайте

    Дорогой пользователь! Огромная просьба, поблагодарите релизера, оцените раздачу и оставьте свои комментарий, если Вы скачали Коммивояжер через торрент бесплатно! Внесите свою лепту в развитие PiratBit!
    Комментировать посты могут только пользователи прошедшие не сложную регистрацию
    Показать сообщения:    

    Коммивояжер через торрент
    Скачать бесплатно Коммивояжер
    Коммивояжер скачать торрент
    Коммивояжер смотреть онлайн
    Cкачать фильм Коммивояжер бесплатно
    Коммивояжер скачать торрент в хорошем качестве
    Коммивояжер смотреть онлайн бесплатно в хорошем качестве


    Вы не можете начинать темы
    Вы не можете отвечать на сообщения
    Вы не можете редактировать свои сообщения
    Вы не можете удалять свои сообщения
    Вы не можете голосовать в опросах
    Вы не можете прикреплять файлы к сообщениям
    Вы можете скачивать файлы