1 сезон

3 сезон

iTunes

1

Line

MVO

iTunes

13

1 сезон

RePack

30

Deluxe

pack

Лицензия

ВАЖНО

ИГРА 18+

pack

RePack

MK11

RePack

jed

RePack

fifa19

RePack

RDR2

RePack

NEED FOR SPEED™ PAYBACK

4 сезон

9 сезон

Бесстыжие 9 сезон

Все сериалы

все сериалы на PB.wtf

RePack

FAR CRY 5

Anonymous, добрый вечер, мы катастрофически не успеваем собрать деньги на оплату серверов, помогите нам пожалуйста 5,10,15р., для нас важна любая помощь . В качестве благодарности мы отключим Вам всю рекламу на сайте (укажите свой ник в строку Ваше имя)!

×
  
Magnet ссылка

Кредо убийцы / Assassin's Creed (Джастин Курзель) [2016, фантастика, фэнтези, боевик, BDRip 720p от R.G.Resident] Дубляж - [Лицензия] pb.wtf

Кредо убийцы через торрент pb.wtf

Размер: 4.6 GB | Добавлен: 4 года 4 мес. назад | Торрент скачан:723 раза
Скачать  

18-03-2017 18:59 Кредо убийцы Скачать торрент  

Кредо убийцы / Assassin's Creed
««Welcome to the Spanish Inquisition»»

Год выпуска: 2016
Страна: Великобритания, Франция, Гонконг, США, Тайвань, Мальта, Канада
Жанр: фантастика, фэнтези, боевик, приключения
Продолжительность: 01:55:30
Перевод: Дубляж - [Лицензия]
Субтитры: русские (Forced), русские (Full), английские (Forced), английские (Full), английские (SDH)
Режиссер: Джастин Курзель
В ролях:

Майкл Фассбендер (Cal Lynch / Aguilar), Марион Котийяр (Sofia), Джереми Айронс (Rikkin), Брендан Глисон (Joseph Lynch), Шарлотта Рэмплинг (Ellen Kaye), Майкл Кеннет Уильямс (Moussa), Дени Меноше (McGowen), Ариана Лабед (Maria), Халид Абдалла (Sultan Muhammad XII), Эсси Дэвис (Mary Lynch), Матиас Варела (Emir), Каллум Тернер (Nathan)
Описание:
Благодаря революционным технологиям, позволяющим вызвать в памяти воспоминания прежних поколений, Каллум Линч проживает приключения своего предка Агилара в Испании 15-го века. Каллум узнает, что является потомком членов загадочного тайного общества ассасинов. Накопив невероятные знания и навыки, он вступает в противостояние с могущественной и жестокой организацией тамплиеров в наши дни.
Мировая премьера: 13 декабря 2016

MPAA: PG-13 - Детям до 13 лет просмотр не желателен
Качество: BDRip 720p Rip by
Формат: MKV
Видео: AVC, 1280x536 (2.40:1), 3743 kbps, 23,976 fps, 0,228 bpp
Аудио №1: русский / AC3 / 5.1 / 48 kHz / 448 kbps /
Аудио №2: английский / DTS / 5.1 / 48 kHz / 1509 kbps / 24 bit
x264 [info]: frame I:1369 Avg QP:10.92 size:113130
x264 [info]: frame P:37321 Avg QP:14.03 size: 36699
x264 [info]: frame B:127487 Avg QP:15.38 size: 13475

General
Unique ID : 213040479920370710316485462808245113439 (0xA0461A9D6B533C97BC91F3E65E4D125F)
Complete name : D:\download\Assassin's.Creed.2016.BDRip 720р by schultz R.G.Resident.mkv
Format : Matroska
Format version : Version 4 / Version 2
File size : 4.60 GiB
Duration : 1 h 55 min
Overall bit rate : 5 702 kb/s
Encoded date : UTC 2017-03-18 18:30:50
Writing application : mkvmerge v8.9.0 ('Father Daughter') 64bit
Writing library : libebml v1.3.3 + libmatroska v1.4.4

Video
ID : 1
Format : AVC
Format/Info : Advanced Video Codec
Format profile : High@L4.1
Format settings, CABAC : Yes
Format settings, ReFrames : 12 frames
Codec ID : V_MPEG4/ISO/AVC
Duration : 1 h 55 min
Bit rate : 3 743 kb/s
Width : 1 280 pixels
Height : 536 pixels
Display aspect ratio : 2.40:1
Frame rate mode : Constant
Frame rate : 23.976 (23976/1000) FPS
Color space : YUV
Chroma subsampling : 4:2:0
Bit depth : 8 bits
Scan type : Progressive
Bits/(Pixel*Frame) : 0.228
Stream size : 3.02 GiB (66%)
Writing library : x264 core 146 r2538 121396c
Encoding settings : cabac=1 / ref=12 / deblock=1:-3:-3 / analyse=0x3:0x113 / me=umh / subme=11 / psy=1 / psy_rd=1.00:0.00 / mixed_ref=1 / me_range=48 / chroma_me=1 / trellis=2 / 8x8dct=1 / cqm=0 / deadzone=21,11 / fast_pskip=0 / chroma_qp_offset=-2 / threads=12 / lookahead_threads=3 / sliced_threads=0 / nr=0 / decimate=0 / interlaced=0 / bluray_compat=0 / constrained_intra=0 / bframes=11 / b_pyramid=2 / b_adapt=2 / b_bias=0 / direct=3 / weightb=1 / open_gop=0 / weightp=2 / keyint=240 / keyint_min=23 / scenecut=40 / intra_refresh=0 / rc_lookahead=40 / rc=2pass / mbtree=1 / bitrate=3743 / ratetol=1.0 / qcomp=0.60 / qpmin=0 / qpmax=69 / qpstep=4 / cplxblur=20.0 / qblur=0.5 / vbv_maxrate=50000 / vbv_bufsize=62500 / nal_hrd=none / filler=0 / ip_ratio=1.40 / aq=1:1.00
Language : English
Default : Yes
Forced : No

Audio #1
ID : 2
Format : AC-3
Format/Info : Audio Coding 3
Mode extension : CM (complete main)
Format settings, Endianness : Big
Codec ID : A_AC3
Duration : 1 h 55 min
Bit rate mode : Constant
Bit rate : 448 kb/s
Channel(s) : 6 channels
Channel positions : Front: L C R, Side: L R, LFE
Sampling rate : 48.0 kHz
Frame rate : 31.250 FPS (1536 spf)
Compression mode : Lossy
Stream size : 370 MiB (8%)
Language : Russian
Default : Yes
Forced : No

Audio #2
ID : 3
Format : DTS
Format/Info : Digital Theater Systems
Mode : 16
Format settings, Endianness : Big
Codec ID : A_DTS
Duration : 1 h 55 min
Bit rate mode : Constant
Bit rate : 1 509 kb/s
Channel(s) : 6 channels
Channel positions : Front: L C R, Side: L R, LFE
Sampling rate : 48.0 kHz
Frame rate : 93.750 FPS (512 spf)
Bit depth : 24 bits
Compression mode : Lossy
Stream size : 1.22 GiB (26%)
Language : English
Default : No
Forced : No

Text #1
ID : 4
Format : UTF-8
Codec ID : S_TEXT/UTF8
Codec ID/Info : UTF-8 Plain Text
Duration : 1 h 31 min
Bit rate : 8 b/s
Count of elements : 124
Stream size : 5.91 KiB (0%)
Title : Forced
Language : Russian
Default : Yes
Forced : No

Text #2
ID : 5
Format : UTF-8
Codec ID : S_TEXT/UTF8
Codec ID/Info : UTF-8 Plain Text
Duration : 1 h 38 min
Bit rate : 43 b/s
Count of elements : 679
Stream size : 31.3 KiB (0%)
Title : Full
Language : Russian
Default : No
Forced : No

Text #3
ID : 6
Format : UTF-8
Codec ID : S_TEXT/UTF8
Codec ID/Info : UTF-8 Plain Text
Duration : 1 h 18 min
Bit rate : 4 b/s
Count of elements : 99
Stream size : 2.76 KiB (0%)
Title : Forced
Language : English
Default : No
Forced : No

Text #4
ID : 7
Format : UTF-8
Codec ID : S_TEXT/UTF8
Codec ID/Info : UTF-8 Plain Text
Duration : 1 h 42 min
Bit rate : 26 b/s
Count of elements : 729
Stream size : 19.5 KiB (0%)
Title : Full
Language : English
Default : No
Forced : No

Text #5
ID : 8
Format : UTF-8
Codec ID : S_TEXT/UTF8
Codec ID/Info : UTF-8 Plain Text
Duration : 1 h 42 min
Bit rate : 29 b/s
Count of elements : 884
Stream size : 22.3 KiB (0%)
Title : SDH
Language : English
Default : No
Forced : No

Menu
00:00:00.000 : en:00:00:00.000
00:06:04.155 : en:00:06:04.155
00:09:32.697 : en:00:09:32.697
00:12:47.517 : en:00:12:47.517
00:16:47.715 : en:00:16:47.715
00:21:07.433 : en:00:21:07.433
00:26:56.448 : en:00:26:56.448
00:31:55.080 : en:00:31:55.080
00:38:06.284 : en:00:38:06.284
00:41:43.167 : en:00:41:43.167
00:46:33.040 : en:00:46:33.040
00:50:10.257 : en:00:50:10.257
00:53:04.390 : en:00:53:04.390
00:56:17.624 : en:00:56:17.624
00:59:26.480 : en:00:59:26.480
01:02:32.582 : en:01:02:32.582
01:06:37.035 : en:01:06:37.035
01:13:08.759 : en:01:13:08.759
01:18:45.888 : en:01:18:45.888
01:23:01.101 : en:01:23:01.101
01:30:17.996 : en:01:30:17.996
01:34:18.194 : en:01:34:18.194
01:37:45.193 : en:01:37:45.193
01:40:51.003 : en:01:40:51.003

pb.wtf



Скачать Кредо убийцы через торрент http://i77.fastpic.ru/big/2016/0417/a7/808a646271c761f7c7d87df3d366b3a7.png Скачать фильм Кредо убийцы через торрент бесплантно в хорошем качестве Описание: Благодаря революционным технологиям, позволяющим вызвать в памяти воспоминания прежних поколений, Каллум Линч проживает ... 9.4 10 19
Info! Золотая раздача, скачанное не засчитывается.
Торрент: Зарегистрирован [2017-03-18 18:59] · скачан: 723 раз
Статус: √ проверено
Размер: 4.6 GB
Как cкачать? Как скачать Кредо убийцы через торрент | UTorrent

28-11-2019 20:33  

Отключить всю рекламу на сайте

18-03-2017 19:19 Кредо убийцы Скачать торрент  

Аммм....
А где скорость? pb.wtf
!Ворон писал(а):

5.6. Запрещено просить о скорости в свежих релизах (2 недели) , так же систематические просьбы расцениваются как флуд (Помните, что скорости релизера может не хватать на всех).



  Лови!, выдал Ворон
    Дорогой пользователь! Огромная просьба, поблагодарите релизера, оцените раздачу и оставьте свои комментарий, если Вы скачали Кредо убийцы через торрент бесплатно! Внесите свою лепту в развитие PiratBit!
    Комментировать посты могут только пользователи прошедшие не сложную регистрацию
    Показать сообщения:    

    Кредо убийцы через торрент
    Скачать бесплатно Кредо убийцы
    Кредо убийцы скачать торрент
    Кредо убийцы смотреть онлайн
    Cкачать фильм Кредо убийцы бесплатно
    Кредо убийцы скачать торрент в хорошем качестве
    Кредо убийцы смотреть онлайн бесплатно в хорошем качестве


    Вы не можете начинать темы
    Вы не можете отвечать на сообщения
    Вы не можете редактировать свои сообщения
    Вы не можете удалять свои сообщения
    Вы не можете голосовать в опросах
    Вы не можете прикреплять файлы к сообщениям
    Вы можете скачивать файлы