Ссылка на приватное зеркало нашего сайта всего за 1$. Внимание количество ограничено!!!

2 сезон

iTunes

1 сезон

1

iTunes

iTunes

iTunes

1 сезон

RePack

30

ИГРА 18+

pack

ВАЖНО

!!Акция!!

Alien_RageХит недели

RePack

MK11
pack

Забери бонус

RePack

jed

!!Акция!!

Alien_Rage

RePack

fifa19

RePack

Assassins Creed: Odyssey

RePack

NEED FOR SPEED™ PAYBACK

4 сезон

9 сезон

Бесстыжие 9 сезон

Все сериалы

все сериалы на PB.wtf

RePack

FAR CRY 5
  

Родное сердце / Серия 1-4 из 4 / (Владимир Кильбург, Каиржан Орынбеков) [2017 г., Мелодрама, SATRip] pb.wtf

Родное сердце через торрент pb.wtf

Размер: 2.39 GB | Добавлен: 3 года 7 мес. назад | Торрент скачан:100 раз
Скачать  

19-03-2017 08:23 Родное сердце Скачать торрент  

Родное сердце
Год выпуска: 2017
Страна: Россия
Жанр: Мелодрама
Продолжительность: 4 х ~ 00:42:00 мин.
Субтитры: нет

Режиссер: Владимир Кильбург, Каиржан Орынбеков

В ролях: Дарья Руденок, Никита Павленко, Иван Решетняк, Анастасия Уколова, Екатерина Агеева, Анатолий Кот, Андрей Фролов, Дарья Егорова, Дмитрий Янышевский

Описание: История о том, как любовь, верность и дружба помогают бывшим детдомовцам добиться справедливости и одержать победу над всесильным чиновником, построившем бизнес на обездоленных людях.
Даша Полякова (Дарья Руденок) – была любимым ребенком и отличницей в школе, но в двенадцать лет попала с родителями в автокатастрофу. Родители погибли, а девочку отправили в детский дом.
Много лет Даше потребовалось, чтобы привыкнуть к суровым дедовским законам, но она смогла стать там своей и обрести настоящих друзей.
Получив образование, Даша Полякова возвращается в родной город, и узнает, что ее квартира давно продана. Вместе с Гришей и детдомовскими друзьями Даша начинает свое расследование. Вскоре выясняется, что она оказалась не единственной жертвой, у многих выпускников детдома также украли квартиры…

Качество: SATRip
Формат: AVI
Видео кодек: XviD
Аудио кодек: MP3
Видео: 720x400 (1.80:1), 25 fps, XviD ~1800 kbps
Аудио: 48 kHz, MPEG Layer 3, 2 ch, ~128.00 kbps avg



General
Complete name : H:\релизы.торрентфайл\Rodnoe.serdce.SATRip.[www.riperam.org]\Rodnoe.serdce.01.SATRip.[www.riperam.org].avi
Format : AVI
Format/Info : Audio Video Interleave
File size : 618 MiB
Duration : 44mn 33s
Overall bit rate : 1 938 Kbps
Writing application : VirtualDubMod 1.5.10.3 |
Writing library : VirtualDubMod build 2550/release

Video
ID : 0
Format : MPEG-4 Visual
Format profile : Advanced Simple@L5
Format settings, BVOP : 2
Format settings, QPel : No
Format settings, GMC : No warppoints
Format settings, Matrix : Default (H.263)
Codec ID : XVID
Codec ID/Hint : XviD
Duration : 44mn 33s
Bit rate : 1 800 Kbps
Width : 720 pixels
Height : 400 pixels
Display aspect ratio : 16:9
Frame rate : 25.000 fps
Color space : YUV
Chroma subsampling : 4:2:0
Bit depth : 8 bits
Scan type : Progressive
Compression mode : Lossy
Bits/(Pixel*Frame) : 0.250
Stream size : 574 MiB (93%)
Writing library : XviD 1.2.1 (UTC 2008-12-04)

Audio
ID : 1
Format : MPEG Audio
Format version : Version 1
Format profile : Layer 3
Mode : Joint stereo
Mode extension : MS Stereo
Codec ID : 55
Codec ID/Hint : MP3
Duration : 44mn 33s
Bit rate mode : Constant
Bit rate : 128 Kbps
Channel(s) : 2 channels
Sampling rate : 48.0 KHz
Compression mode : Lossy
Stream size : 40.8 MiB (7%)
Alignment : Aligned on interleaves
Interleave, duration : 40 ms (1.00 video frame)
Interleave, preload duration : 504 ms
Writing library : LAME3.99r
Encoding settings : -m j -V 4 -q 9 -lowpass 17 -b 128

pb.wtf



Скачать Родное сердце через торрент http://pic1.kartinco.top/images/11/a1wx3.jpg Скачать фильм Родное сердце через торрент бесплантно в хорошем качестве Описание: История о том, как любовь, верность и дружба помогают бывшим детдомовцам добиться справедливости и одержать победу над всесильным ... 10 10 2
Торрент: Зарегистрирован [2017-03-19 08:23] · скачан: 100 раз
Статус: √ проверено
Размер: 2.39 GB
Как cкачать? Как скачать Родное сердце через торрент | qTorrent

% Раздел Тема Автор DL S | L
Наши сериалы [ 2.71 GB ] Родное сердце / 1-4 серии из 4 [2017 HDTVRip-AVC] bober100 Скачать
1 | 0

28-11-2019 20:33  

Отключить всю рекламу на сайте

    Дорогой пользователь! Огромная просьба, поблагодарите релизера, оцените раздачу и оставьте свои комментарий, если Вы скачали Родное сердце через торрент бесплатно! Внесите свою лепту в развитие PiratBit!
    Комментировать посты могут только пользователи прошедшие не сложную регистрацию
    Показать сообщения:    

    Родное сердце через торрент
    Скачать бесплатно Родное сердце
    Родное сердце скачать торрент
    Родное сердце смотреть онлайн
    Cкачать фильм Родное сердце бесплатно
    Родное сердце скачать торрент в хорошем качестве
    Родное сердце смотреть онлайн бесплатно в хорошем качестве


    Вы не можете начинать темы
    Вы не можете отвечать на сообщения
    Вы не можете редактировать свои сообщения
    Вы не можете удалять свои сообщения
    Вы не можете голосовать в опросах
    Вы не можете прикреплять файлы к сообщениям
    Вы можете скачивать файлы