Ссылка на приватное зеркало нашего сайта всего за 1$. Внимание количество ограничено!!!

2 сезон

iTunes

1 сезон

1

iTunes

iTunes

iTunes

1 сезон

RePack

30

ИГРА 18+

pack

ВАЖНО

!!Акция!!

Alien_RageХит недели

RePack

MK11
pack

Забери бонус

RePack

jed

!!Акция!!

Alien_Rage

RePack

fifa19

RePack

Assassins Creed: Odyssey

RePack

NEED FOR SPEED™ PAYBACK

4 сезон

9 сезон

Бесстыжие 9 сезон

Все сериалы

все сериалы на PB.wtf

RePack

FAR CRY 5
  

Закон каменных джунглей / Сезон 2 / Серия 1-8 из 8 (Игорь Хомский, Иван Бурлаков) [2017 г., Детектив, драма, криминал, молодежный, SATRip] pb.wtf

Закон каменных джунглей через торрент pb.wtf

Размер: 4.44 GB | Добавлен: 3 года 6 мес. назад | Торрент скачан:833 раза
Скачать  

20-03-2017 13:59 Закон каменных джунглей Скачать торрент  

Закон каменных джунглей / Сезон 2 / Серия 1- 8 из 8
Год выпуска: 2017
Страна: Россия, "СинеПро"
Жанр: Детектив, драма, криминал, молодежный
Продолжительность: 8 х ~ 00:46:00
Субтитры: нет

Режиссер: Игорь Хомский, Иван Бурлаков

В ролях: Аристарх Венес, Никита Павленко, Игорь Огурцов, Александр Мельников, Даниил Вахрушев, Владимир Сычёв, Александр Петров, Юлия Хлынина, Елизавета Кононова, Дарья Руденок, Светлана Садковская, Роман Синицын, Дмитрий Власкин, Руслан Братов, Сергей Глушко, Мария Сурова, Андрей Коровниченко, Дмитрий Поддубный, Лариса Никитина, Александр Боровиков, Татьяна Конышева

Описание: Четыре парня с окраины Москвы решают заработать легких денег — перегнать машину с краденым грузом внутри. Не особо задумываясь о последствиях, они совершают одну ошибку за другой, и очень скоро у них появляются серьезные проблемы с законом. Теперь пути назад нет и, чтобы выжить, четырем друзьям нужно во что бы то ни стало держаться вместе.

Качество: SATRip
Формат: AVI
Видео кодек: XviD
Аудио кодек: AC3
Видео: XviD, ~ 1584 Kbps , 720x320,25.000 fps
Аудио#1: AC3, 2 ch, 192, 48.0 KHz



General
Complete name : H:\релизы.торрентфайл\Охота на дьявола(2017.)\01.Zakon.kamennych.dzunglej.2016.SATRip.Files-x.avi
Format : AVI
Format/Info : Audio Video Interleave
File size : 592 MiB
Duration : 46mn 20s
Overall bit rate : 1 786 Kbps
Writing application : VirtualDubMod 1.5.10.2 (build 2542/release)
Writing library : VirtualDubMod build 2542/release

Video
ID : 0
Format : MPEG-4 Visual
Format profile : Advanced Simple@L5
Format settings, BVOP : 1
Format settings, QPel : No
Format settings, GMC : No warppoints
Format settings, Matrix : Custom
Codec ID : XVID
Codec ID/Hint : XviD
Duration : 46mn 20s
Bit rate : 1 584 Kbps
Width : 720 pixels
Height : 320 pixels
Display aspect ratio : 2.25:1
Frame rate : 25.000 fps
Color space : YUV
Chroma subsampling : 4:2:0
Bit depth : 8 bits
Scan type : Progressive
Compression mode : Lossy
Bits/(Pixel*Frame) : 0.275
Stream size : 525 MiB (89%)
Writing library : XviD 73

Audio
ID : 1
Format : AC-3
Format/Info : Audio Coding 3
Mode extension : CM (complete main)
Format settings, Endianness : Big
Codec ID : 2000
Duration : 46mn 20s
Bit rate mode : Constant
Bit rate : 192 Kbps
Channel(s) : 2 channels
Channel positions : Front: L R
Sampling rate : 48.0 KHz
Bit depth : 16 bits
Compression mode : Lossy
Stream size : 63.6 MiB (11%)
Alignment : Split accross interleaves
Interleave, duration : 40 ms (1.00 video frame)
Interleave, preload duration : 500 ms

Внимание! Раздача ведётся путём добавления новых серий; при каждом добавлении создётся новый торрент. Чтобы начать докачку новой серии, пользователям необходимо сделать следующее:
  • Остановить скачивание,
  • Удалить старый торрент у себя из клиента (старые серии удалять не надо),
  • Скачать новый торрент и запустить его у себя в клиенте вместо старого, при этом указать клиенту путь в старую папку куда и должно происходить скачивание новых серий.
Ваш клиент при этом должен произвести хеширование (проверку) старой папки (если не производит сам - помогите ему сделать это), и будет докачивать только те серии которых у вас ещё нет. Старые серии при этом не удаляются, а продолжают раздаваться!

Eсли вы уже удалили старые серии, то предотвратить повторную закачку старых серий можно, отжав галочку в соответсвующих местах при запуске нового торрента. По возможности, желательно не удалять старые серии как можно дольше чтобы релизёр не столько продолжал раздавать старые серии, а смог сконцентрироваться на новых.
pb.wtf



Скачать Закон каменных джунглей через торрент http://pic1.kartinco.top/images/11/g9can.jpg Скачать фильм Закон каменных джунглей через торрент бесплантно в хорошем качестве Описание: Четыре парня с окраины Москвы решают заработать легких денег — перегнать машину с краденым грузом внутри. Не особо задумываясь о ... 9.4 10 64
Info! Золотая раздача, скачанное не засчитывается.
Торрент: Зарегистрирован [2017-03-30 14:53] · скачан: 833 раз
Статус: √ проверено
Размер: 4.44 GB
Как cкачать? Как скачать Закон каменных джунглей через торрент | qTorrent

% Раздел Тема Автор DL S | L
Наши сериалы [ 9.18 GB ] Закон каменных джунглей / 2 сезон / 1-8 серии из 8 [2017 HDTVRip 720p] bober100 Скачать
1 | 0


Последний раз редактировалось: oleg8 (2017-03-30 14:53), всего редактировалось 6 раз(а)

28-11-2019 20:33  

Отключить всю рекламу на сайте

21-03-2017 14:49 Закон каменных джунглей Скачать торрент  

добавил 2 серию.pb.wtf



21-03-2017 17:38 Закон каменных джунглей Скачать торрент  

Спасибо заценим!!!!!pb.wtf



22-03-2017 13:44 Закон каменных джунглей Скачать торрент  

добавленна 3 серия.pb.wtf



23-03-2017 14:27 Закон каменных джунглей Скачать торрент  

добавил 4 серию.pb.wtf



27-03-2017 21:54 Закон каменных джунглей Скачать торрент  

добавленна 5 серия.pb.wtf



28-03-2017 13:37 Закон каменных джунглей Скачать торрент  

добавленна 6 серия.pb.wtf



29-03-2017 14:14 Закон каменных джунглей Скачать торрент  

добавил 7 серию.Приятного просмотра. pb.wtf



30-03-2017 03:50 Закон каменных джунглей Скачать торрент  

жги дальшеpb.wtf



30-03-2017 14:55 Закон каменных джунглей Скачать торрент  

bibikovmast писал(а):

жги дальше

pb.wtf



30-03-2017 14:56 Закон каменных джунглей Скачать торрент  

Сезон завершен.pb.wtf



01-04-2017 07:26 Закон каменных джунглей Скачать торрент  

ни хера не понял продолжение будет?pb.wtf



    Дорогой пользователь! Огромная просьба, поблагодарите релизера, оцените раздачу и оставьте свои комментарий, если Вы скачали Закон каменных джунглей через торрент бесплатно! Внесите свою лепту в развитие PiratBit!
    Комментировать посты могут только пользователи прошедшие не сложную регистрацию
    Показать сообщения:    

    Закон каменных джунглей через торрент
    Скачать бесплатно Закон каменных джунглей
    Закон каменных джунглей скачать торрент
    Закон каменных джунглей смотреть онлайн
    Cкачать фильм Закон каменных джунглей бесплатно
    Закон каменных джунглей скачать торрент в хорошем качестве
    Закон каменных джунглей смотреть онлайн бесплатно в хорошем качестве


    Вы не можете начинать темы
    Вы не можете отвечать на сообщения
    Вы не можете редактировать свои сообщения
    Вы не можете удалять свои сообщения
    Вы не можете голосовать в опросах
    Вы не можете прикреплять файлы к сообщениям
    Вы можете скачивать файлы