MEGA NEWS Получи личный уникальный адрес сайта и защити себя от блокировок. Внимание количество ограничено!!!

iTunes

1+1

iTunes

мы

iTunes

1

iTunes

Чернобыль

iTunes

Ральф против интернета

Лицензия

ПШазам

Лицензия

Игра престолов

Лицензия

30
pack

ВАЖНО

!!Акция!!

Alien_RageХит недели

RePack

Resident Evil 21

ИГРА 18+

pack

RePack

Metro:Exodus

!!Акция!!

Alien_Rage

RePack

fifa19

RePack

Assassins Creed: Odyssey

RePack

NEED FOR SPEED™ PAYBACK

3 сезон

9 сезон

Бесстыжие 9 сезон

Все сериалы

все сериалы на PB.wtf

RePack

FAR CRY 5
Ребята, катастрофически не хватает 1900р. для оплаты серверов за АВГУСТ (всвязи с блокировками трафик упал в 3 раза), 1-2р., выручайте.
  

Подводная лодка / Das Boot (Вольфганг Петерсен) [1981, триллер, драма, приключения, BDRip-AVC, MVO] [Режиссёрская версия / Director's Cut] pb.wtf

Подводная лодка через торрент pb.wtf

Раздают: 1 [ 0 KB/s ]
Размер: 4.79 GB | Добавлен: 2 года 6 мес. назад | Торрент скачан:89 раз
Скачать  

20-03-2017 18:44 Подводная лодка Скачать торрент  

Подводная лодка / Das BootРежиссёрская версия / Director's Cut
Год выпуска: 1981
Страна: Германия (ФРГ)
Жанр: триллер, драма, приключения, военный

Продолжительность: 03:28:20
Перевод: Профессиональный многоголосый [R5]
Субтитры: русские (SuperBit)
Режиссер: Вольфганг Петерсен
В ролях:

Юрген Прохнов (Capt.-Lt. Henrich Lehmann-Willenbrock - Der Alte), Херберт Грёнемайер (Lt. Werner - Correspondent), Клаус Веннеманн (Chief Engineer Fritz Grade - Der Leitende-Der LI), Хабертус Бенгш (1st Lieutenant - Number One-1WO), Мартин Земмельрогге (2nd Lieutenant - 2WO), Бернд Таубер (Kriechbaum - Chief Quartermaster-Navigator), Эрвин Ледер (Johann), Мартин Май (Ullman), Хайнц Хёниг (Hinrich), Уве Оксенкнехт (Chief Bosun), Клод-Оливер Рудольф (Ario), Ян Феддер (Pilgrim)
Описание:
Осень 1941 года. Немецкая подводная лодка отправляется в Атлантический океан, место противостояния германского и английского флотов. Жизнь по строгому распорядку, учебные тревоги, воспоминания о семьях и любимых девушках, соленые мужские шуточки... Скоро всё это закончится. Потому что впереди - ад и никакой надежды на спасение...
Рейтинг:

MPAA: R - Лицам до 17 лет обязательно присутствие взрослого
Качество: BDRip-AVC
Формат: MKV
Видео: AVC, 1056x572 (1.85:1), 2333 kbps, 23,976 fps, 0,161 bpp
Аудио №1: русский / AC3 / 5.1 / 48 kHz / 448 kbps / |MVO, R5|
Аудио №2: немецкий / AC3 / 5.1 / 48 kHz / 448 kbps /
Навигация по главам: есть
General
Unique ID : 183085902160897452885250787100573250008 (0x89BD0FE8308AD92B8A95CECA6C1F31D8)
Complete name : E:\Das.Boot.1981.BDRip-AVC.tRuAVC.mkv
Format : Matroska
Format version : Version 2
File size : 4.79 GiB
Duration : 3 h 28 min
Overall bit rate : 3 295 kb/s
Movie name : Подводная лодка / Das Boot (1981) [tRuAVC] [Geralt iz Rivii]
Encoded date : UTC 2010-10-23 06:08:35
Writing application : mkvmerge v3.4.0 ('Rapunzel') built on May 15 2010 09:38:20
Writing library : libebml v0.8.0 + libmatroska v0.9.0
Cover : Yes
Attachments : Cover.jpg

Video
ID : 1
Format : AVC
Format/Info : Advanced Video Codec
Format profile : High@L4
Format settings, CABAC : Yes
Format settings, ReFrames : 12 frames
Codec ID : V_MPEG4/ISO/AVC
Duration : 3 h 28 min
Bit rate : 2 333 kb/s
Width : 1 056 pixels
Height : 572 pixels
Display aspect ratio : 1.85:1
Frame rate mode : Constant
Frame rate : 23.976 (24000/1001) FPS
Color space : YUV
Chroma subsampling : 4:2:0
Bit depth : 8 bits
Scan type : Progressive
Bits/(Pixel*Frame) : 0.161
Stream size : 3.40 GiB (71%)
Title : Подводная лодка / Das Boot (1981) [tRuAVC] [Geralt iz Rivii]
Writing library : x264 core 107 r1745kMod 4785e8e
Encoding settings : cabac=1 / ref=12 / deblock=1:-2:0 / analyse=0x3:0x133 / me=umh / subme=10 / psy=1 / psy_rd=0.95:0.00 / mixed_ref=1 / me_range=32 / chroma_me=1 / trellis=2 / 8x8dct=1 / cqm=0 / deadzone=21,11 / fast_pskip=1 / chroma_qp_offset=-2 / threads=12 / sliced_threads=0 / nr=0 / decimate=1 / interlaced=0 / constrained_intra=0 / bframes=16 / b_pyramid=2 / b_adapt=2 / b_bias=0 / direct=3 / weightb=1 / open_gop=0 / weightp=2 / keyint=250 / keyint_min=23 / scenecut=40 / intra_refresh=0 / rc=crf / mbtree=0 / crf=19.2000 / qcomp=0.65 / qpmin=10 / qpmax=51 / qpstep=4 / ip_ratio=1.40 / pb_ratio=1.30 / aq=1:0.90
Language : German
Default : Yes
Forced : No
Color range : Limited
Matrix coefficients : BT.709

Audio #1
ID : 2
Format : AC-3
Format/Info : Audio Coding 3
Mode extension : CM (complete main)
Format settings, Endianness : Big
Codec ID : A_AC3
Duration : 3 h 28 min
Bit rate mode : Constant
Bit rate : 448 kb/s
Channel(s) : 6 channels
Channel positions : Front: L C R, Side: L R, LFE
Sampling rate : 48.0 kHz
Frame rate : 31.250 FPS (1536 spf)
Compression mode : Lossy
Stream size : 668 MiB (14%)
Title : 48 kHz, AC-3, 5.1 ch, 448 kbps - MVO Lizard (R5)
Language : Russian
Default : Yes
Forced : No

Audio #2
ID : 3
Format : AC-3
Format/Info : Audio Coding 3
Mode extension : CM (complete main)
Format settings, Endianness : Big
Codec ID : A_AC3
Duration : 3 h 28 min
Bit rate mode : Constant
Bit rate : 448 kb/s
Channel(s) : 6 channels
Channel positions : Front: L C R, Side: L R, LFE
Sampling rate : 48.0 kHz
Frame rate : 31.250 FPS (1536 spf)
Compression mode : Lossy
Stream size : 668 MiB (14%)
Title : 48 kHz, AC-3, 5.1 ch, 448 kbps - Original
Language : German
Default : No
Forced : No

Text
ID : 4
Format : UTF-8
Codec ID : S_TEXT/UTF8
Codec ID/Info : UTF-8 Plain Text
Title : SuperBit
Language : Russian
Default : No
Forced : No

Menu
00:00:00.000 : de:00:00:00.000
00:12:26.162 : de:00:12:26.162
00:21:52.311 : de:00:21:52.311
00:33:15.243 : de:00:33:15.243
00:43:37.906 : de:00:43:37.906
00:52:33.316 : de:00:52:33.316
01:03:17.210 : de:01:03:17.210
01:11:33.455 : de:01:11:33.455
01:16:33.589 : de:01:16:33.589
01:29:48.007 : de:01:29:48.007
01:40:23.976 : de:01:40:23.976
01:53:03.902 : de:01:53:03.902
02:02:33.262 : de:02:02:33.262
02:12:46.291 : de:02:12:46.291
02:21:47.540 : de:02:21:47.540
02:32:02.196 : de:02:32:02.196
02:42:01.086 : de:02:42:01.086
02:52:57.658 : de:02:52:57.658
03:03:34.712 : de:03:03:34.712
03:14:24.694 : de:03:14:24.694
03:23:34.827 : de:03:23:34.827
pb.wtf



Скачать Подводная лодка через торрент http://i1.imageban.ru/out/2017/03/20/60d59591324cd79216949da1e58aaf3f.jpg Скачать фильм Подводная лодка через торрент бесплантно в хорошем качестве Описание: Осень 1941 года. Немецкая подводная лодка отправляется в Атлантический океан, место противостояния германского и английского ... 10 10 4
Info! Серебряная раздача, засчитывается только 50% скачанного.
Торрент: Зарегистрирован [2017-03-20 18:44] · скачан: 89 раз
Статус: √ проверено
Размер: 4.79 GB
Как cкачать? Как скачать Подводная лодка через торрент | qTorrent

% Раздел Тема Автор DL S | L
Зарубежные сериалы [ 5.78 GB ] Подводная лодка / Das Boot / Сезон: 1 / Серии: 1-8 из 8 [2018 военный HDTVRip] [MVO] killermax2013 Скачать
1 | 0
Фильмы [HD 720p, 1080p] (Хороший звук DUB, MVO) [ 11.55 GB ] Подводная лодка / Das Boot [1981 военный BDRip 1080p MVO] [Режиссёрская версия / Director's Cut] -Lexx- Скачать
1 | 0
Фильмы (HD 720p, 1080p) (48-60 fps) [ 13.01 GB ] Подводная лодка / Das Boot [1981 военный BDRip 720p 60fps] многоголосый Бавария Скачать
2 | 1
Фильмы до 2000 г. [ 2.18 GB ] Подводная лодка / Das Boot [1981 военный история BDRip] Shmel Скачать
1 | 0


>> Регистрируемся здесь <<






Отзывы и комментарии о схеме читаем и пишем здесь: ---> Отзывы и комментарии о схеме

Новые благодарочки в телеграм довольных пользователей:
скриншот   скриншот   скриншот   скриншот   скриншот
    Дорогой пользователь! Огромная просьба, поблагодарите релизера, оцените раздачу и оставьте свои комментарий, если Вы скачали Подводная лодка через торрент бесплатно! Внесите свою лепту в развитие PiratBit!
    Комментировать посты могут только пользователи прошедшие не сложную регистрацию
    Показать сообщения:    

    Подводная лодка через торрент
    Скачать бесплатно Подводная лодка
    Подводная лодка скачать торрент
    Подводная лодка смотреть онлайн
    Cкачать фильм Подводная лодка бесплатно
    Подводная лодка скачать торрент в хорошем качестве
    Подводная лодка смотреть онлайн бесплатно в хорошем качестве


    Вы не можете начинать темы
    Вы не можете отвечать на сообщения
    Вы не можете редактировать свои сообщения
    Вы не можете удалять свои сообщения
    Вы не можете голосовать в опросах
    Вы не можете прикреплять файлы к сообщениям
    Вы можете скачивать файлы