Ссылка на приватное зеркало нашего сайта всего за 1$. Внимание количество ограничено!!!

2 сезон

iTunes

1 сезон

1

2 сезон

2 сезон

iTunes

1 сезон

RePack

30

Новинка

ВАЖНО

ИГРА 18+

pack

RePack

MK11
pack

Забери бонус

RePack

jed

!!Акция!!

Alien_Rage

RePack

fifa19

RePack

Assassins Creed: Odyssey

RePack

NEED FOR SPEED™ PAYBACK

4 сезон

9 сезон

Бесстыжие 9 сезон

Все сериалы

все сериалы на PB.wtf

RePack

FAR CRY 5
  

Железный кулак / Iron Fist / Сезон 1 / Серии 1-13 из 13 (Джон Дал, Фэррен Блэкберн, Ута Бризвитц) [2017, Фантастика, боевик, криминал, приключения, WEBRip] MVO [IdeaFilm] pb.wtf

Железный кулак через торрент pb.wtf

Размер: 9.54 GB | Добавлен: 3 года 8 мес. назад | Торрент скачан:41 раз
Скачать  

20-03-2017 20:24 Железный кулак Скачать торрент  

Железный кулак / Iron FistГод выпуска: 2017
Страна: США
Жанр: Фантастика, боевик, криминал, приключения
Продолжительность: 13 х ~00:55:00
Перевод: Любительский (многоголосый) - [IdeaFilm]
Субтитры: отсутствуют

Режиссер: Джон Дал, Фэррен Блэкберн, Ута Бризвитц

rating

В ролях:

Финн Джонс, Джессика Хенвик, Джессика Строуп, Дэвид Уэнэм, Розарио Доусон, Рамон Фернандес, Хосе Баэс, Людовик Куто, Тоби Николс, Крэйг Джерати, Доа Моа, Тихуана Рикс, По Шадоу, Йинка Адебойэку, Джастин Блейк, Никита Боголюбов, Николь Бонифачио, Альберто Бонилла, Эммануэль Браун

Описание:

Спустя годы после исчезновения, Дэниэл Рэнд возвращается в Нью-Йорк и начинает борьбу с криминалом, используя свои невообразимые навыки кунг-фу и способность вызывать силу Железного кулака.

Качество: WEBRip
Формат: AVI
Видео кодек: XviD
Аудио кодек: AC3

Видео: 720x400 (1.80:1), 23.976 fps, XviD build 50 ~1498 kbps avg, 0.22 bit/pixel
Аудио#1: 48 kHz, AC3 Dolby Digital, 3/2 (L,C,R,l,r) + LFE ch, ~384 kbps
Общее
Полное имя : C:\Marvels.Iron.Fist.S01.WEBRip\Marvels.Iron.Fist.S01E01.WEBRip-IDEAFILM.avi
Формат : AVI
Формат/Информация : Audio Video Interleave
Размер файла : 768 Мбайт
Продолжительность : 56 м. 42 с.
Общий поток : 1892 Кбит/сек
Программа кодирования : VirtualDubMod 1.5.10.2 (build 2540/release)
Библиотека кодирования : VirtualDubMod build 2540/release

Видео
Идентификатор : 0
Формат : MPEG-4 Visual
Профиль формата : Advanced Simple@L5
Параметр BVOP формата : 2
Параметр QPel формата : Нет
Параметр GMC формата : Без точки перехода
Параметр матрицы формата : Default (MPEG)
Идентификатор кодека : XVID
Идентификатор кодека/Подсказка : XviD
Продолжительность : 56 м. 42 с.
Битрейт : 1499 Кбит/сек
Ширина : 720 пикселей
Высота : 400 пикселей
Соотношение сторон : 16:9
Частота кадров : 23,976 (24000/1001) кадра/сек
Цветовое пространство : YUV
Субдискретизация насыщенности : 4:2:0
Битовая глубина : 8 бит
Тип развёртки : Прогрессивная
Метод сжатия : С потерями
Бит/(Пиксели*Кадры) : 0.217
Размер потока : 608 Мбайт (79%)
Библиотека кодирования : XviD 1.2.1 (UTC 2008-12-04)

Аудио
Идентификатор : 1
Формат : AC-3
Формат/Информация : Audio Coding 3
Расширение режима : CM (complete main)
Параметр Endianness формата : Big
Идентификатор кодека : 2000
Продолжительность : 56 м. 42 с.
Вид битрейта : Постоянный
Битрейт : 384 Кбит/сек
Каналы : 6 каналов
Расположение каналов : Front: L C R, Side: L R, LFE
Частота : 48,0 КГц
Частота кадров : 31,250 кадров/сек (1536 spf)
Метод сжатия : С потерями
Размер потока : 156 Мбайт (20%)
Выравнивание : Разделение по промежуткам
Продолжительность промежутка : 42 мс. (1,00 видеокадр)
Время предзагрузки промежутка : 500 мс.
Внимание! Раздача ведётся путём добавления новых серий; при каждом добавлении создаётся новый торрент. Чтобы начать докачку новой серии, пользователям необходимо сделать следующее:
(1) остановить скачивание,
(2) удалить старый торрент у себя из клиента (старые серии удалять не надо),
(3) скачать новый торрент и запустить его у себя в клиенте вместо старого, при этом указать клиенту путь в старую папку куда и должно происходить скачивание новых серий.

Ваш клиент при этом должен произвести хеширование (проверку) старой папки (если не производит сам - помогите ему сделать это), и будет докачивать только те серии которых у вас ещё нет. Старые серии при этом не удаляются, а продолжают раздаваться!

Eсли вы уже удалили старые серии, то предотвратить повторную закачку старых серий можно, отжав галочку в соответствующих местах при запуске нового торрента. По возможности, желательно не удалять старые серии как можно дольше, чтобы релизёр не столько продолжал раздавать старые серии, а смог сконцентрироваться на новых.
скриншот   скриншот   скриншот   скриншот  
pb.wtf



Скачать Железный кулак через торрент http://s42.radikal.ru/i096/1703/9c/6ae5b4dfd704.jpg Скачать фильм Железный кулак через торрент бесплантно в хорошем качестве Описание: Спустя годы после исчезновения, Дэниэл Рэнд возвращается в Нью-Йорк и начинает борьбу с криминалом, используя свои невообразимые ... 9.8 10 9
Info! Серебряная раздача, засчитывается только 50% скачанного.
Торрент: Зарегистрирован [2017-03-21 12:04] · скачан: 41 раз
Статус: √ проверено
Размер: 9.54 GB
Как cкачать? Как скачать Железный кулак через торрент | qTorrent

% Раздел Тема Автор DL S | L
Зарубежные сериалы [ 13.57 GB ] Железный кулак / Iron Fist / Сезон 1 / Серии 1-13 из 13 [2017 WEBRip-AVC] MVO [NewStudio] GEKADOL Скачать
1 | 0
Зарубежные сериалы [ 8 GB ] Железный кулак / Iron Fist / 1 сезон / Серии 1-13 из 13 [2017 WEBRip] MVO [LostFilm] bober100 Скачать
1 | 0
Зарубежные сериалы [ 80.43 GB ] Железный кулак / Iron Fist / Сезон: 1 / Серии 1-13 из 13 [2017 WEBRip 1080p] [MVO] killermax2013 Скачать
1 | 0
Зарубежные сериалы [ 13.48 GB ] Железный кулак / Iron Fist / Сезон 1 / Серии 1-13 из 13 [2017 WEBRip-AVC] MVO [BaibaKo] GEKADOL Скачать
1 | 0
Зарубежные сериалы [ 6.81 GB ] Железный кулак / Iron Fist / Сезон: 1 / Серии 1-13 из 13 [2017 WEBRip] [MVO] killermax2013 Скачать
1 | 0
Зарубежные сериалы [ 8 GB ] Железный кулак / Iron Fist / Сезон 1 / Серии 1-13 из 13 [2017 WEB-DLRip] MVO [NewStudio] bober100 Скачать
1 | 0

28-11-2019 20:33  

Отключить всю рекламу на сайте

    Дорогой пользователь! Огромная просьба, поблагодарите релизера, оцените раздачу и оставьте свои комментарий, если Вы скачали Железный кулак через торрент бесплатно! Внесите свою лепту в развитие PiratBit!
    Комментировать посты могут только пользователи прошедшие не сложную регистрацию
    Показать сообщения:    

    Железный кулак через торрент
    Скачать бесплатно Железный кулак
    Железный кулак скачать торрент
    Железный кулак смотреть онлайн
    Cкачать фильм Железный кулак бесплатно
    Железный кулак скачать торрент в хорошем качестве
    Железный кулак смотреть онлайн бесплатно в хорошем качестве


    Вы не можете начинать темы
    Вы не можете отвечать на сообщения
    Вы не можете редактировать свои сообщения
    Вы не можете удалять свои сообщения
    Вы не можете голосовать в опросах
    Вы не можете прикреплять файлы к сообщениям
    Вы можете скачивать файлы