Всегда рабочее зеркало без VPN и Proxy просто перед .vidak.icu напиши любое слово или цифру, Пример http://eqju.vidak.icu

MVO

2 сезон

2 сезон

1

1 сезон

iTunes

2 сезон

13

1 сезон

Распродажа

pack

Рекомендуем

Пиратка

30

ВАЖНО

RePack

MK11

RePack

jed

RePack

fifa19

RePack

RDR2

RePack

NEED FOR SPEED™ PAYBACK

Кинопоиск HD

6 сезон

 Острые козырьки 6 сезон

Все сериалы

все сериалы на PB.wtf

RePack

FAR CRY 5

Anonymous, нам критически не хватает 5601 руб. на оплату серверов и переферии за Апрель, помоги нам пожалуйста, вся надежда только на тебя. В благодарность мы отключим тебе всю рекламу на сайте!

×
  
Magnet ссылка

«Дюна» Ходоровского / Jodorowsky's Dune (Фрэнк Павич / Frank Pavich) [2013 г., документальный, биография, история., HDRip, Любительский (одноголосый) PiratVoice + Original + sub (rus, eng)] pb.wtf

«Дюна» Ходоровского через торрент pb.wtf

Раздают: 1 [ 0 KB/s ]
Размер: 827 MB | Добавлен: 5 лет 2 мес. назад | Торрент скачан:24 раза
Смотреть онлайн «Дюна» Ходоровского | Скачать    Ребята, помогите собрать деньги на оплату серверов!!!

20-03-2017 21:26 «Дюна» Ходоровского Скачать торрент  

«Дюна» Ходоровского / Jodorowsky's Dune
Год выпуска: 2013
Страна: Франция, США
Жанр: документальный, биография, история.
Продолжительность: 01:30:14
Перевод: Любительский (одноголосый) Клерик (PiratVoice)
Субтитры: RUS + ENG. SRT. Внешние.

Режиссер: Фрэнк Павич / Frank Pavich



Описание: В начале 1970-х годов режиссёр Алехандро Ходоровски начал подготовку к съёмке экранизации научно-фантастического романа Фрэнка Герберта «Дюна». Однако два года работы так и не дали результата, фильм так и не был снят. Фильм позволит заглянуть за кулисы фильма «Дюна». В нем используются интервью с самим Ходоровски, Гигером и другими членами команды несостоявшейся экранизации.

Качество: HDRip
Формат: AVI
Видео кодек: XviD
Аудио кодек: MP3
Видео: XVID 688x384, 16:9, 1 022 kbps, 23.976 fps
Аудио#1: MP3, 128 kbps, 48.0 kHz, 2 ch rus
Аудио#2: MP3, 128 kbps, 48.0 kHz, 2 ch eng Отдельным файлом.


Раздавать могу только с 00:15 до 07:45 по Москве. Прошу отнестись с пониманием.
General
Format : AVI
Format/Info : Audio Video Interleave
Format profile : OpenDML
Format settings : rec
File size : 744 MiB
Duration : 1 h 30 min
Overall bit rate : 1 153 kb/s

Video
ID : 0
Format : MPEG-4 Visual
Format profile : Advanced Simple@L5
Format settings, BVOP : 3
Format settings, QPel : Yes
Format settings, GMC : 3 warppoints
Format settings, Matrix : Default (H.263)
Codec ID : XVID
Codec ID/Hint : XviD
Duration : 1 h 30 min
Bit rate : 1 022 kb/s
Width : 688 pixels
Height : 384 pixels
Display aspect ratio : 16:9
Frame rate : 23.976 (24000/1001) FPS
Color space : YUV
Chroma subsampling : 4:2:0
Bit depth : 8 bits
Scan type : Progressive
Compression mode : Lossy
Bits/(Pixel*Frame) : 0.161
Stream size : 659 MiB (89%)
Writing library : XviD 1.2.1 (UTC 2008-12-04)

Audio
ID : 1
Format : MPEG Audio
Format version : Version 1
Format profile : Layer 3
Codec ID : 55
Codec ID/Hint : MP3
Duration : 1 h 30 min
Bit rate mode : Constant
Bit rate : 128 kb/s
Channel(s) : 2 channels
Sampling rate : 48.0 kHz
Compression mode : Lossy
Stream size : 82.6 MiB (11%)
Alignment : Aligned on interleaves
Interleave, duration : 714 ms (17.13 video frames)
Interleave, preload duratio : 216 ms
Writing library : LAME3.99r
Encoding settings : -m s -V 4 -q 2 -lowpass 17 -b 128


--> НАШ YOUTUBE КАНАЛ
--> МЫ ВКОНТАКТЕ
-- > ...
pb.wtf



Скачать «Дюна» Ходоровского через торрент http://i63.fastpic.ru/big/2014/1201/3d/cf03649813b71087f52ee4deb37de13d.jpg Скачать, смотреть онлайн «Дюна» Ходоровского бесплантно в хорошем качестве Описание: В начале 1970-х годов режиссёр Алехандро Ходоровски начал подготовку к съёмке экранизации научно-фантастического романа Фрэнка ... 10 10 3
Info! Золотая раздача, скачанное не засчитывается.
Торрент: Зарегистрирован [2017-03-20 21:26] · скачан: 24 раз
Статус: √ проверено
Размер: 827 MB
Как cкачать? Как скачать «Дюна» Ходоровского через торрент | UTorrent

28-11-2019 20:33  

Отключить всю рекламу на сайте

20-03-2017 21:51 «Дюна» Ходоровского Скачать торрент  

Клерик, немного поправил - перезалил скрины , чтобы они открывались без перехода на сайт фотохостинга.
Благодарю за труд и за раздачу! pb.wtf



20-03-2017 22:22 «Дюна» Ходоровского Скачать торрент  

-Lexx- писал(а):

Клерик, немного поправил - перезалил скрины , чтобы они открывались без перехода на сайт фотохостинга.

Спасибо. pb.wtf



21-03-2017 04:41 «Дюна» Ходоровского Скачать торрент  

Клерик писал(а):

Ходоровского

Молодец!!!
Я помню игру на SEGA очень была интересна по тем временам.))pb.wtf



    Дорогой пользователь! Огромная просьба, поблагодарите релизера, оцените раздачу и оставьте свои комментарий, если Вы скачали «Дюна» Ходоровского через торрент бесплатно!
    Комментировать посты могут только пользователи прошедшие не сложную регистрацию
    Показать сообщения:    

    «Дюна» Ходоровского через торрент
    Скачать бесплатно «Дюна» Ходоровского
    «Дюна» Ходоровского скачать торрент
    «Дюна» Ходоровского смотреть онлайн
    Cкачать фильм «Дюна» Ходоровского бесплатно
    «Дюна» Ходоровского скачать торрент в хорошем качестве
    «Дюна» Ходоровского смотреть онлайн бесплатно в хорошем качестве


    Вы не можете начинать темы
    Вы не можете отвечать на сообщения
    Вы не можете редактировать свои сообщения
    Вы не можете удалять свои сообщения
    Вы не можете голосовать в опросах
    Вы не можете прикреплять файлы к сообщениям
    Вы можете скачивать файлы