Ссылка на приватное зеркало нашего сайта всего за 1$. Внимание количество ограничено!!!

2 сезон

iTunes

1 сезон

1

iTunes

iTunes

iTunes

1 сезон

RePack

30

ИГРА 18+

pack

ВАЖНО

!!Акция!!

Alien_RageХит недели

RePack

MK11
pack

Забери бонус

RePack

jed

!!Акция!!

Alien_Rage

RePack

fifa19

RePack

Assassins Creed: Odyssey

RePack

NEED FOR SPEED™ PAYBACK

4 сезон

9 сезон

Бесстыжие 9 сезон

Все сериалы

все сериалы на PB.wtf

RePack

FAR CRY 5
  

Мата Хари / Серии: 1-12 из 12 (Денни Берри, Джулиус Берг, Ольга Ряшина) [2016 , история, драма, HDTV 1080p] Не требуется [Русский] от R.G.Resident pb.wtf

Мата Хари через торрент pb.wtf

Размер: 24.37 GB | Добавлен: 3 года 6 мес. назад | Торрент скачан:89 раз
Скачать  

21-03-2017 03:06 Мата Хари Скачать торрент  

Мата Хари


Год выпуска: 2016

Страна: Россия, Португалия, Украина
Жанр: история, драма
Продолжительность: 00:46:40
Перевод: Не требуется [Русский]
Режиссер: Денни Берри, Джулиус Берг, Ольга Ряшина
В ролях:

Ваина Джоканте (Мата Хари), Ошин Стак (Габриэль Астрюк), Максим Матвеев (Владимир Маслов), Алексей Гуськов (Жожр Ладу), Ксения Раппопорт (Елизабет Шрагмюллер), Виктория Исакова (Лидия Киреевская), Рутгер Хауэр (Стольбаккен), Кристофер Ламберт (Крамер), Светлана Ходченкова (Златка Дженич), Александр Михайлов (Семихин), Александр Петров (Матье), Нуно Лопеш (Максимилиан Ридох)
Описание:
Маргарет Мак-Леод, преследуемая своим бывшим мужем, лишается опеки над дочерью и брошена на произвол судьбы, не имея никаких средств к существованию. Она становится танцовщицей, отчаявшись найти какой-либо другой заработок.
Мировая премьера: 21 января 2017


Качество: HDTV 1080p Rip by
Формат: MKV
Видео: 1920x1080 (16:9), 25.000 fps, 5 867 Kbps (0.113 bit/pixel)
Аудио: Русский AC3, 48.0 KHz, 6 ch, 384 Kbps, CBR

Общее
Уникальный идентификатор : 172065564578434769052679851946932496394 (0x81729F507DC8369F80C3865BE5B4E80A)
Полное имя : E:\Mata Xari.2017.HDTV 1080.by.R.G.Resident\ Mata.Hari.s01.e08.2016.HDTV 1080.by.White Smoke.R.G.Resident.mkv
Формат : Matroska
Размер файла : 1,95 Гбайт
Продолжительность : 43 м.
Общий поток : 6371 Кбит/сек
Название фильма : Mata.Hari.s01.e08.2016.HDTV 1080.by.White Smoke.R.G.Resident.mkv
Дата кодирования : UTC 2017-03-28 00:48:39
Программа кодирования : mkvmerge v6.8.0 ('Theme for Great Cities') 64bit built on Mar 2 2014 21:34:26
Библиотека кодирования : libebml v1.3.0 + libmatroska v1.4.1

Видео
Идентификатор : 1
Формат : AVC
Формат/Информация : Advanced Video Codec
Профиль формата : Main@L4.1
Параметр CABAC формата : Нет
Параметр ReFrames формата : 1 кадр
Идентификатор кодека : V_MPEG4/ISO/AVC
Продолжительность : 43 м.
Битрейт : 5860 Кбит/сек
Ширина : 1920 пикс.
Высота : 1080 пикс.
Соотношение сторон : 16:9
Частота кадров : 25,000 кадр/сек
Цветовое пространство : YUV
Подвыборка цветности : 4:2:0
Битовая глубина : 8 бит
Тип развёртки : Прогрессивная
Бит/(Пиксели*Кадры) : 0.113
Размер потока : 1,80 Гбайт (92%)

Аудио
Идентификатор : 2
Формат : AC-3
Формат/Информация : Audio Coding 3
Расширение режима : CM (complete main)
Идентификатор кодека : A_AC3
Продолжительность : 43 м.
Вид битрейта : Постоянный
Битрейт : 384 Кбит/сек
Канал(ы) : 6 канала(ов)
Расположение каналов : Front: L C R, Side: L R, LFE
Частота : 48,0 КГц
Битовая глубина : 16 бит
Метод сжатия : С потерями
Размер потока : 121 Мбайт (6%)

© Оформление by White Smoke pb.wtf
KWhite Smoke писал(а):

уважаемые пользователи необходима ваша помощь заливке релизов такого качества подробнее тут Группе R.G. Resident необходима ваша поддержка! всем Заранее спасибо



Скачать Мата Хари через торрент http://i6.imageban.ru/out/2017/03/21/51fe5cedc1a34e751aa2e1cf0afa3c97.png Скачать фильм Мата Хари через торрент бесплантно в хорошем качестве Описание: Маргарет Мак-Леод, преследуемая своим бывшим мужем, лишается опеки над дочерью и брошена на произвол судьбы, не имея никаких ... 9.9 10 8
Info! Золотая раздача, скачанное не засчитывается.
Торрент: Зарегистрирован [2017-03-29 05:37] · скачан: 89 раз
Статус: √ проверено
Размер: 24.37 GB
Как cкачать? Как скачать Мата Хари через торрент | qTorrent

28-11-2019 20:33  

Отключить всю рекламу на сайте

    Дорогой пользователь! Огромная просьба, поблагодарите релизера, оцените раздачу и оставьте свои комментарий, если Вы скачали Мата Хари через торрент бесплатно! Внесите свою лепту в развитие PiratBit!
    Комментировать посты могут только пользователи прошедшие не сложную регистрацию
    Показать сообщения:    

    Мата Хари через торрент
    Скачать бесплатно Мата Хари
    Мата Хари скачать торрент
    Мата Хари смотреть онлайн
    Cкачать фильм Мата Хари бесплатно
    Мата Хари скачать торрент в хорошем качестве
    Мата Хари смотреть онлайн бесплатно в хорошем качестве


    Вы не можете начинать темы
    Вы не можете отвечать на сообщения
    Вы не можете редактировать свои сообщения
    Вы не можете удалять свои сообщения
    Вы не можете голосовать в опросах
    Вы не можете прикреплять файлы к сообщениям
    Вы можете скачивать файлы