Ссылка на приватное зеркало нашего сайта всего за 1$. Внимание количество ограничено!!!

2 сезон

iTunes

1 сезон

1

2 сезон

2 сезон

iTunes

1 сезон

RePack

30

Ultimate

ВАЖНО

ИГРА 18+

pack

RePack

MK11
pack

Забери бонус

RePack

jed

!!Акция!!

Alien_Rage

RePack

fifa19

RePack

Assassins Creed: Odyssey

RePack

NEED FOR SPEED™ PAYBACK

4 сезон

9 сезон

Бесстыжие 9 сезон

Все сериалы

все сериалы на PB.wtf

RePack

FAR CRY 5
  

Ловушка / A Kind of Murder (Энди Годдард) [2016, триллер, драма, BDRemux 1080p] Дубляж - [Лицензия / iTunes] pb.wtf

Ловушка через торрент pb.wtf

Размер: 16.22 GB | Добавлен: 3 года 8 мес. назад | Торрент скачан:45 раз
Скачать  

21-03-2017 05:14 Ловушка Скачать торрент  

Ловушка / A Kind of Murder

Год выпуска: 2016
Страна: США
Жанр: триллер, драма

Продолжительность: 01:35:35
Перевод: Дубляж - [Лицензия / iTunes]
Субтитры: английские (Full)
Режиссер: Энди Годдард
В ролях:

Патрик Уилсон (Walter Stackhouse), Хейли Беннетт (Ellie), Джессика Бил (Clara Stackhouse), Винсент Картайзер (Detective Lawrence Corby), Эдди Марсан (Kimmel), Радек Лорд (Tony Ricco), Кен Штрунк (Mr. Philpott), Корри Дэниэли (Betty Ireton), Джон Осбек (Jon Caar), Кристин А. Дай (Claudia), Дженнифер Энскат (Mrs. Philpott), Michael Hall (Mr. Devries)
Описание:
Нью-Йорк, шестидесятые годы прошлого века. Стэкхаусы - внешне идеальная семейная пара: молодые, красивые, успешные. Он - удачливый архитектор, она - процветающий риелтор и великолепная хозяйка великолепного дома. На самом деле Уолтер давно думает о разводе, потому что Клара замучила его своими претензиями, истериками, ревностью и угрозами покончить с собой, если он ее оставит. Однажды внимание Уолтера привлекает газетная заметка: женщина, жена букиниста, жестоко убита неподалеку от стоянки автобуса, преступника не нашли. Ему кажется, что убийцей мог быть муж жертвы, хотя у того, казалось бы, надежное алиби. Стекхаус решает с ним встретиться, не предполагая, в какую ловушку угодит.
Рейтинг:

MPAA: R - Лицам до 17 лет обязательно присутствие взрослого
Качество: BDRemux 1080p
Формат: MKV
Видео: AVC, 1920x1080, 22.0 Mbit/s, 23.976 fps
Аудио №1: русский / AC3 / 5.1 / 48 kHz / 384 kbps / |Дубляж, iTunes|
Аудио №2: английский / DTS-HD MA / 5.1 / 48 kHz / 1920 kbps / 16 bits
Навигация по главам: есть
Релиз от:
General
Unique ID : 197792981214249333949321091807167180580 (0x94CD8AE35004427A9FB8589D0750EF24)
Complete name : C:UsersbattiDesktopA.Kind.of.Murder.2016.BDREMUX.1080p.ExKinoRay.mkv
Format : Matroska
Format version : Version 4 / Version 2
File size : 16.2 GiB
Duration : 1 h 35 min
Overall bit rate mode : Variable
Overall bit rate : 24.3 Mb/s
Encoded date : UTC 2017-03-21 04:44:26
Writing application : mkvmerge v8.3.0 ('Over the Horizon') 64bit
Writing library : libebml v1.3.1 + libmatroska v1.4.2

Video
ID : 1
Format : AVC
Format/Info : Advanced Video Codec
Format profile : High@L4.1
Format settings, CABAC : Yes
Format settings, ReFrames : 4 frames
Codec ID : V_MPEG4/ISO/AVC
Duration : 1 h 35 min
Bit rate mode : Variable
Bit rate : 22.0 Mb/s
Maximum bit rate : 35.0 Mb/s
Width : 1 920 pixels
Height : 1 080 pixels
Display aspect ratio : 16:9
Frame rate mode : Constant
Frame rate : 23.976 (24000/1001) FPS
Standard : NTSC
Color space : YUV
Chroma subsampling : 4:2:0
Bit depth : 8 bits
Scan type : Progressive
Bits/(Pixel*Frame) : 0.442
Stream size : 14.7 GiB (91%)
Language : English
Default : No
Forced : No
Color range : Limited
Color primaries : BT.709
Transfer characteristics : BT.709
Matrix coefficients : BT.709

Audio #1
ID : 2
Format : AC-3
Format/Info : Audio Coding 3
Mode extension : CM (complete main)
Format settings, Endianness : Big
Codec ID : A_AC3
Duration : 1 h 35 min
Bit rate mode : Constant
Bit rate : 384 kb/s
Channel(s) : 6 channels
Channel positions : Front: L C R, Side: L R, LFE
Sampling rate : 48.0 kHz
Frame rate : 31.250 FPS (1536 spf)
Bit depth : 16 bits
Compression mode : Lossy
Stream size : 263 MiB (2%)
Title : iTunes
Language : Russian
Default : Yes
Forced : No

Audio #2
ID : 3
Format : DTS
Format/Info : Digital Theater Systems
Format profile : MA / Core
Mode : 16
Format settings, Endianness : Big
Codec ID : A_DTS
Duration : 1 h 35 min
Bit rate mode : Variable / Constant
Bit rate : 1 920 kb/s / 1 509 kb/s
Channel(s) : 6 channels
Channel positions : Front: L C R, Side: L R, LFE
Sampling rate : 48.0 kHz
Frame rate : 93.750 FPS (512 spf)
Bit depth : 16 bits
Compression mode : Lossless / Lossy
Stream size : 1.27 GiB (8%)
Title : Original
Language : English
Default : No
Forced : No

Text
ID : 4
Format : UTF-8
Codec ID : S_TEXT/UTF8
Codec ID/Info : UTF-8 Plain Text
Duration : 1 h 29 min
Bit rate : 43 b/s
Count of elements : 1038
Stream size : 28.9 KiB (0%)
Title : Full
Language : English
Default : No
Forced : No

Menu
00:00:00.000 : en:00:00:00.000
00:07:59.104 : en:00:07:59.104
00:15:02.860 : en:00:15:02.860
00:23:23.527 : en:00:23:23.527
00:32:15.934 : en:00:32:15.934
00:40:10.033 : en:00:40:10.033
00:49:29.758 : en:00:49:29.758
00:55:51.890 : en:00:55:51.890
01:03:48.533 : en:01:03:48.533
01:10:20.800 : en:01:10:20.800
01:20:38.375 : en:01:20:38.375
01:30:33.928 : en:01:30:33.928
pb.wtf



Скачать Ловушка через торрент http://i3.imageban.ru/out/2017/03/21/fd0000905cdb4e98ee38ab476e1b348e.jpg Скачать фильм Ловушка через торрент бесплантно в хорошем качестве Описание: Нью-Йорк, шестидесятые годы прошлого века. Стэкхаусы - внешне идеальная семейная пара: молодые, красивые, успешные. Он - ... 7.8 10 4
Info! Золотая раздача, скачанное не засчитывается.
Торрент: Зарегистрирован [2017-03-21 05:14] · скачан: 45 раз
Статус: √ проверено
Размер: 16.22 GB
Как cкачать? Как скачать Ловушка через торрент | qTorrent

% Раздел Тема Автор DL S | L
Фильмы 2016 [DVDrip, WEB-DLRip, HDrip] (DUB, MVO) [ 1.42 GB ] Ловушка / A Kind of Murder [2016 BDRip] - Twi7ter Скачать
1 | 0
Фильмы [HD 720p, 1080p] (Хороший звук DUB, MVO) [ 10.6 GB ] Ловушка / A Kind of Murder [2016 BDRip 1080p] - -Lexx- Скачать
1 | 0
Фильмы без перевода [ 3.51 GB ] Ловушка / A Kind of Murder [2016 WEB-DL 1080p] [ENG] killermax2013 Скачать
1 | 0

28-11-2019 20:33  

Отключить всю рекламу на сайте

    Дорогой пользователь! Огромная просьба, поблагодарите релизера, оцените раздачу и оставьте свои комментарий, если Вы скачали Ловушка через торрент бесплатно! Внесите свою лепту в развитие PiratBit!
    Комментировать посты могут только пользователи прошедшие не сложную регистрацию
    Показать сообщения:    

    Ловушка через торрент
    Скачать бесплатно Ловушка
    Ловушка скачать торрент
    Ловушка смотреть онлайн
    Cкачать фильм Ловушка бесплатно
    Ловушка скачать торрент в хорошем качестве
    Ловушка смотреть онлайн бесплатно в хорошем качестве


    Вы не можете начинать темы
    Вы не можете отвечать на сообщения
    Вы не можете редактировать свои сообщения
    Вы не можете удалять свои сообщения
    Вы не можете голосовать в опросах
    Вы не можете прикреплять файлы к сообщениям
    Вы можете скачивать файлы