Ссылка на приватное зеркало нашего сайта всего за 1$. Внимание количество ограничено!!!

2 сезон

iTunes

1 сезон

1

iTunes

iTunes

iTunes

1 сезон

RePack

30

ИГРА 18+

pack

ВАЖНО

!!Акция!!

Alien_RageХит недели

RePack

MK11
pack

Забери бонус

RePack

jed

!!Акция!!

Alien_Rage

RePack

fifa19

RePack

Assassins Creed: Odyssey

RePack

NEED FOR SPEED™ PAYBACK

4 сезон

9 сезон

Бесстыжие 9 сезон

Все сериалы

все сериалы на PB.wtf

RePack

FAR CRY 5
  

Пожиратель грехов / The Order (Брайан Хелгеленд / Brian Helgeland) [2003 г., боевик, триллер, детектив, BDRip,720p.] MVOx2 + VO pb.wtf

Пожиратель грехов через торрент pb.wtf

Размер: 5.14 GB | Добавлен: 10 лет назад | Торрент скачан:107 раз
Скачать  

28-09-2010 20:10 Пожиратель грехов Скачать торрент  

Пожиратель грехов / The Order
«The Order will find you.»

Год выпуска: 2003
Страна: Германия, США
Жанр: боевик / триллер / детектив
Продолжительность: 01:42:17
Русские субтитры: Есть
Перевод:
Профессиональный (многоголосый, закадровый) 2 варианта
Любительский (одноголосый, закадровый)

Режиссер: Брайан Хелгеленд / Brian Helgeland
Сценарий: Брайан Хелгеленд / Brian Helgeland
Продюсер: Крэйг Баумгартен, Томас М. Хэммел, Брайан Хелгеленд
Бюджет: $38 000 000 | Сборы в мире: $11 560 806
IMDB: 4.9 (9,148) | КиноПоиск: 6.7 (844)
КиноПоиск.Ru | IMDb.com

В ролях: Хит Леджер, Шаннин Соссамон, Бенно Фюрманн, Марк Эдди, Питер Уэллер, Франческо Карнелутти, Маттиа Сбраджа, Mirko Casaburo.

Описание:
Тайный мистический орден направляет Алекса Бернье в Рим для расследования серии странных и очень похожих убийств. Простой поначалу сюжет раскручивается в хитросплетенную интригу загадочных мистических событий, приводя к разгадке величайшей тайны, скрываемой церковью от всего мира. Встреча лицом к лицу с таинственным человеком, существование которого так тщательно скрывалось в течение долгих столетий, дает Алексу способности и знания, способные изменить жизнь человечества, но обладание которыми гораздо страшнее самой смерти.

Качество: BDRip | | Формат: MKV |
Видео кодек: H.264 | Аудио кодек: AC3
Видео: MPEG4 Video (H264) 1280x696 23.98fps ~ 4603 Kbps
Аудио:
Russian: 48 kHz, AC3 Dolby Digital, 3/2 (L,C,R,l,r) + LFE ch, ~448 kbps (Фокс)
Russian: 48 kHz, AC3 Dolby Digital, 3/2 (L,C,R,l,r) + LFE ch, ~448 kbps
Russian: 48 kHz, AC3 Dolby Digital, 2/0 (L,R) ch, ~192 kbps
ORG: 48 kHz, DTS, 3/2 (L,C,R,l,r) + LFE ch, ~1510.00 kbps avg

Cемпл

General
Complete name : J:\The.Order.2003.720p.BluRay.x264.mkv
Format : Matroska
File size : 5.14 GiB
Duration : 1h 42mn
Overall bit rate : 7 200 Kbps
Movie name : The.Order.2003.720p.BluRay.x264-aAF
Encoded date : UTC 2010-09-25 10:25:50
Writing application : mkvmerge v3.2.0 ('Beginnings') built on Feb 12 2010 16:46:17
Writing library : libebml v0.7.9 + libmatroska v0.8.1

Video
ID : 1
Format : AVC
Format/Info : Advanced Video Codec
Format profile : High@L4.1
Format settings, CABAC : Yes
Format settings, ReFrames : 5 frames
Muxing mode : Container profile=Unknown@4.1
Codec ID : V_MPEG4/ISO/AVC
Duration : 1h 42mn
Bit rate : 4 459 Kbps
Nominal bit rate : 4 603 Kbps
Width : 1 280 pixels
Height : 696 pixels
Display aspect ratio : 16:9
Frame rate : 23.976 fps
Resolution : 8 bits
Colorimetry : 4:2:0
Scan type : Progressive
Bits/(Pixel*Frame) : 0.209
Stream size : 3.19 GiB (62%)
Writing library : x264 core 104 r1713 c276662
Encoding settings : cabac=1 / ref=5 / deblock=1:0:0 / analyse=0x3:0x133 / me=umh / subme=8 / psy=1 / psy_rd=1.00:0.00 / mixed_ref=1 / me_range=16 / chroma_me=1 / trellis=1 / 8x8dct=1 / cqm=0 / deadzone=21,11 / fast_pskip=0 / chroma_qp_offset=-2 / threads=12 / sliced_threads=0 / nr=0 / decimate=1 / interlaced=0 / constrained_intra=0 / bframes=3 / b_pyramid=2 / b_adapt=1 / b_bias=0 / direct=1 / weightb=1 / open_gop=0 / weightp=2 / keyint=240 / keyint_min=24 / scenecut=40 / intra_refresh=0 / rc_lookahead=40 / rc=2pass / mbtree=1 / bitrate=4603 / ratetol=1.0 / qcomp=0.60 / qpmin=10 / qpmax=51 / qpstep=4 / cplxblur=20.0 / qblur=0.5 / ip_ratio=1.40 / aq=1:1.00
Language : English

Audio #1
ID : 2
Format : AC-3
Format/Info : Audio Coding 3
Codec ID : A_AC3
Duration : 1h 42mn
Bit rate mode : Constant
Bit rate : 448 Kbps
Channel(s) : 6 channels
Channel positions : Front: L C R, Side: L R, LFE
Sampling rate : 48.0 KHz
Stream size : 328 MiB (6%)
Title : многоголосый (Фокс)
Language : Russian

Audio #2
ID : 3
Format : AC-3
Format/Info : Audio Coding 3
Codec ID : A_AC3
Duration : 1h 42mn
Bit rate mode : Constant
Bit rate : 448 Kbps
Channel(s) : 6 channels
Channel positions : Front: L C R, Side: L R, LFE
Sampling rate : 48.0 KHz
Stream size : 328 MiB (6%)
Title : многоголосый
Language : Russian

Audio #3
ID : 4
Format : AC-3
Format/Info : Audio Coding 3
Codec ID : A_AC3
Duration : 1h 42mn
Bit rate mode : Constant
Bit rate : 192 Kbps
Channel(s) : 2 channels
Channel positions : Front: L R
Sampling rate : 48.0 KHz
Stream size : 140 MiB (3%)
Title : одноголосый
Language : Russian

Audio #4
ID : 5
Format : DTS
Format/Info : Digital Theater Systems
Codec ID : A_DTS
Duration : 1h 42mn
Bit rate mode : Constant
Bit rate : 1 510 Kbps
Channel(s) : 6 channels
Channel positions : Front: L C R, Side: L R, LFE
Sampling rate : 48.0 KHz
Resolution : 24 bits
Stream size : 1.08 GiB (21%)
Language : English

Text
ID : 6
Format : UTF-8
Codec ID : S_TEXT/UTF8
Codec ID/Info : UTF-8 Plain Text
pb.wtf



Скачать Пожиратель грехов через торрент http://s52.radikal.ru/i135/1009/70/cd11d191bb3c.jpg Скачать фильм Пожиратель грехов через торрент бесплантно в хорошем качестве Описание:Тайный мистический орден направляет Алекса Бернье в Рим для расследования серии странных и очень похожих убийств. Простой поначалу ... 10 10 1
Info! Золотая раздача, скачанное не засчитывается.
Торрент: Зарегистрирован [2010-09-28 20:10] · скачан: 107 раз
Статус: √ проверено
Размер: 5.14 GB
Как cкачать? Как скачать Пожиратель грехов через торрент | qTorrent

28-11-2019 20:33  

Отключить всю рекламу на сайте

29-09-2010 05:27 Пожиратель грехов Скачать торрент  

и как фильм?pb.wtf



29-09-2010 05:46 Пожиратель грехов Скачать торрент  

посмотреть можно...pb.wtf



    Дорогой пользователь! Огромная просьба, поблагодарите релизера, оцените раздачу и оставьте свои комментарий, если Вы скачали Пожиратель грехов через торрент бесплатно! Внесите свою лепту в развитие PiratBit!
    Комментировать посты могут только пользователи прошедшие не сложную регистрацию
    Показать сообщения:    

    Пожиратель грехов через торрент
    Скачать бесплатно Пожиратель грехов
    Пожиратель грехов скачать торрент
    Пожиратель грехов смотреть онлайн
    Cкачать фильм Пожиратель грехов бесплатно
    Пожиратель грехов скачать торрент в хорошем качестве
    Пожиратель грехов смотреть онлайн бесплатно в хорошем качестве


    Вы не можете начинать темы
    Вы не можете отвечать на сообщения
    Вы не можете редактировать свои сообщения
    Вы не можете удалять свои сообщения
    Вы не можете голосовать в опросах
    Вы не можете прикреплять файлы к сообщениям
    Вы можете скачивать файлы