Ссылка на приватное зеркало нашего сайта всего за 1$. Внимание количество ограничено!!!

2 сезон

iTunes

1 сезон

1

iTunes

iTunes

iTunes

1 сезон

RePack

30

ИГРА 18+

pack

ВАЖНО

!!Акция!!

Alien_RageХит недели

RePack

MK11
pack

Забери бонус

RePack

jed

!!Акция!!

Alien_Rage

RePack

fifa19

RePack

Assassins Creed: Odyssey

RePack

NEED FOR SPEED™ PAYBACK

4 сезон

9 сезон

Бесстыжие 9 сезон

Все сериалы

все сериалы на PB.wtf

RePack

FAR CRY 5
  

Новый лист / A New Leaf (Элейн Мэй) [1971, мелодрама, комедия, BDRip 720p by msltel] DVO pb.wtf

Новый лист через торрент pb.wtf

Раздают: 2 [ 0 KB/s ]
Размер: 4.59 GB | Добавлен: 3 года 7 мес. назад | Торрент скачан:13 раз
Скачать  

21-03-2017 08:08 Новый лист Скачать торрент  

Название: Новый лист
Оригинальное название: A New Leaf
Год выпуска: 1971
Страна: США
Жанр: мелодрама, комедия
Продолжительность: 01:42:26
Перевод: профессиональный двухголосый

Режиссёр: Элейн Мэй

В ролях: Уолтер Мэттау, Элейн Мэй, Джек Уэстон, Джордж Роуз, Джеймс Коко, Дорис Робертс, Рене Тейлор, Уильям Редфилд, Грэм Джарвис, Джесс Осуна, Дэвид Дойл, Фред Стюарт, Марк Гордон, Роуз Аррик

Описание: Растратив на удовольствия всё своё состояние, плэйбой Генри Грэм озаботился поиском нового источника дохода. Из всех путей к богатству он выбрал самый короткий — выгодную женитьбу. Жениться, а потом избавиться от супруги, отправив её на тот свет, — таков был его план. Но, по иронии судьбы, оказалось, что женщина-учёный, которой он уготовил роль жертвы, работает над проблемой бессмертия…



Качество: BDRip 720p
Формат: MKV
Видео: MPEG-4 AVC, 6035 Kбит/с, 1280x720, 23,976 кадра/с
Аудио 1: русский, AC3, 192 kbps, 2 ch, 48 kHz [профессиональный двухголосый]
Аудио 2: английский, AC3, 192 kbps, 1 ch, 48 kHz [оригинал]
Имеются неименованные главы/чаптеры.
Общее
Уникальный идентификатор : 254167108752431272989699122393721794259 (0xBF36CDF7CE3C1A20B740899BB2A2EED3)
Полное имя : D:\Video\Новый лист.1971.BDRip.720p by msltel.mkv
Формат : Matroska
Версия формата : Version 4 / Version 2
Размер файла : 4,59 Гбайт
Продолжительность : 1 ч. 42 м.
Общий поток : 6420 Кбит/сек
Название фильма : Rip by msltel
Дата кодирования : UTC 2017-03-20 09:59:32
Программа кодирования : mkvmerge v8.2.0 ('World of Adventure') 64bit
Библиотека кодирования : libebml v1.3.1 + libmatroska v1.4.2

Видео
Идентификатор : 1
Формат : AVC
Формат/Информация : Advanced Video Codec
Профиль формата : High@L4.1
Параметр CABAC формата : Да
Параметр ReFrames формата : 9 кадров
Идентификатор кодека : V_MPEG4/ISO/AVC
Продолжительность : 1 ч. 42 м.
Битрейт : 6035 Кбит/сек
Ширина : 1280 пикселей
Высота : 720 пикселей
Соотношение сторон : 16:9
Режим частоты кадров : Постоянный
Частота кадров : 23,976 (24000/1001) кадра/сек
Цветовое пространство : YUV
Субдискретизация насыщенности : 4:2:0
Битовая глубина : 8 бит
Тип развёртки : Прогрессивная
Бит/(Пиксели*Кадры) : 0.273
Размер потока : 4,32 Гбайт (94%)
Библиотека кодирования : x264 core 146 r2538 121396c
Настройки программы : cabac=1 / ref=9 / deblock=1:-3:-2 / analyse=0x3:0x113 / me=umh / subme=11 / psy=1 / psy_rd=1.00:0.15 / mixed_ref=1 / me_range=32 / chroma_me=1 / trellis=2 / 8x8dct=1 / cqm=0 / deadzone=21,11 / fast_pskip=0 / chroma_qp_offset=-3 / threads=6 / lookahead_threads=1 / sliced_threads=0 / nr=0 / decimate=1 / interlaced=0 / bluray_compat=0 / constrained_intra=0 / bframes=10 / b_pyramid=2 / b_adapt=2 / b_bias=0 / direct=1 / weightb=1 / open_gop=0 / weightp=2 / keyint=230 / keyint_min=23 / scenecut=40 / intra_refresh=0 / rc_lookahead=40 / rc=crf / mbtree=0 / crf=20.0 / qcomp=0.60 / qpmin=0 / qpmax=69 / qpstep=4 / vbv_maxrate=62500 / vbv_bufsize=78125 / crf_max=0.0 / nal_hrd=none / filler=0 / ip_ratio=1.40 / pb_ratio=1.30 / aq=1:1.00
Язык : English
Default : Да
Forced : Нет

Аудио #1
Идентификатор : 2
Формат : AC-3
Формат/Информация : Audio Coding 3
Режим : Dolby Digital
Параметр Endianness формата : Big
Идентификатор кодека : A_AC3
Продолжительность : 1 ч. 42 м.
Вид битрейта : Постоянный
Битрейт : 192 Кбит/сек
Каналы : 2 канала
Расположение каналов : Front: L R
Частота : 48,0 КГц
Частота кадров : 31,250 кадров/сек (1536 spf)
Битовая глубина : 16 бит
Метод сжатия : С потерями
Размер потока : 141 Мбайт (3%)
Заголовок : DVO
Язык : Russian
ServiceKind/String : Complete Main
Default : Да
Forced : Нет

Аудио #2
Идентификатор : 3
Формат : AC-3
Формат/Информация : Audio Coding 3
Параметр Endianness формата : Big
Идентификатор кодека : A_AC3
Продолжительность : 1 ч. 42 м.
Вид битрейта : Постоянный
Битрейт : 192 Кбит/сек
Каналы : 1 канал
Расположение каналов : Front: C
Частота : 48,0 КГц
Частота кадров : 31,250 кадров/сек (1536 spf)
Битовая глубина : 16 бит
Метод сжатия : С потерями
Размер потока : 141 Мбайт (3%)
Заголовок : original
Язык : English
ServiceKind/String : Complete Main
Default : Нет
Forced : Нет

Меню
00:00:00.000 : :Chapter 01
00:10:36.301 : :Chapter 02
00:19:15.529 : :Chapter 03
00:26:42.100 : :Chapter 04
00:46:33.248 : :Chapter 05
00:56:32.055 : :Chapter 06
01:08:24.934 : :Chapter 07
01:22:09.424 : :Chapter 08
01:42:25.347 : :Chapter 09
pb.wtf



Скачать Новый лист через торрент http://hostpic.gq/img/2017-03/21/2v4s3gjlj1vnpcbrdn75ln0v8.jpg Скачать фильм Новый лист через торрент бесплантно в хорошем качестве Описание: Растратив на удовольствия всё своё состояние, плэйбой Генри Грэм озаботился поиском нового источника дохода. Из всех путей к ... 10 10 1
Info! Золотая раздача, скачанное не засчитывается.
Торрент: Зарегистрирован [2017-03-21 08:08] · скачан: 13 раз
Статус: √ проверено
Размер: 4.59 GB
Как cкачать? Как скачать Новый лист через торрент | qTorrent

% Раздел Тема Автор DL S | L
Фильмы [HD 720p, 1080p] (Хороший звук DUB, MVO) [ 11.61 GB ] Новый лист / A New Leaf [1971 BDRip 1080p by msltel] DVO msltel Скачать
1 | 0

28-11-2019 20:33  

Отключить всю рекламу на сайте

    Дорогой пользователь! Огромная просьба, поблагодарите релизера, оцените раздачу и оставьте свои комментарий, если Вы скачали Новый лист через торрент бесплатно! Внесите свою лепту в развитие PiratBit!
    Комментировать посты могут только пользователи прошедшие не сложную регистрацию
    Показать сообщения:    

    Новый лист через торрент
    Скачать бесплатно Новый лист
    Новый лист скачать торрент
    Новый лист смотреть онлайн
    Cкачать фильм Новый лист бесплатно
    Новый лист скачать торрент в хорошем качестве
    Новый лист смотреть онлайн бесплатно в хорошем качестве


    Вы не можете начинать темы
    Вы не можете отвечать на сообщения
    Вы не можете редактировать свои сообщения
    Вы не можете удалять свои сообщения
    Вы не можете голосовать в опросах
    Вы не можете прикреплять файлы к сообщениям
    Вы можете скачивать файлы