Ссылка на приватное зеркало нашего сайта всего за 1$. Внимание количество ограничено!!!

2 сезон

iTunes

1 сезон

1

2 сезон

2 сезон

iTunes

1 сезон

RePack

30

Новинка

ВАЖНО

ИГРА 18+

pack

RePack

MK11
pack

Забери бонус

RePack

jed

!!Акция!!

Alien_Rage

RePack

fifa19

RePack

Assassins Creed: Odyssey

RePack

NEED FOR SPEED™ PAYBACK

4 сезон

9 сезон

Бесстыжие 9 сезон

Все сериалы

все сериалы на PB.wtf

RePack

FAR CRY 5
  

Оазис / Oasis / Сезон: 1 / Серии 1 из ??? (Кевин МакДональд) [2017, Фантастика, WEBRip] [DVO] (SunshineStudio) pb.wtf

Оазис через торрент pb.wtf

Размер: 733 MB | Добавлен: 3 года 8 мес. назад | Торрент скачан:102 раза
Скачать  

21-03-2017 12:39 Оазис Скачать торрент  

ОазисOasis

Год выпуска: 2017
Страна: Великобритания
Жанр: Фантастика
Продолжительность: 10x ~01:00:00
Перевод: Любительский (двухголосый закадровый) (SunshineStudio)
Субтитры: отсутствуют

Режиссёр: Кевин МакДональд

В ролях: Ричард Мэдден, Анил Капур, Хейли Джоэл Осмент, Марк Эдди, Моурин Себастьян, Зоуи Эштон

Описание: Сериал основан на культовой «Книге странных новых вещей» Мишеля Фейбера. В центре сюжета «Оазиса» оказывается судовой священник, который отправляется в космическое путешествие на отдаленную планету, чтобы принять участие в создании новой колонии. На пути герою предстоит испытать на прочность не только свою веру, но и представление о самой жизни.


Качество: WEBRip
Формат: AVI
Видео: 720x360 (2.00:1), 23.976 fps, XviD build 50 ~1499 kbps avg, 0.24 bit/pixel
Аудио: AC3, 48 kHz, 2 ch, 192 kbps


General
Complete name : E:\Oasis.S01.400p.SunshineStudio\Oasis.S01E01.400p.SunshineStudio.avi
Format : AVI
Format/Info : Audio Video Interleave
File size : 733 MiB
Duration : 1h 0mn
Overall bit rate : 1 701 Kbps
Writing application : VirtualDubMod 1.5.10.3 | www.virtualdub-fr.org || (build 2550/release)
Writing library : VirtualDubMod build 2550/release

Video
ID : 0
Format : MPEG-4 Visual
Format profile : Advanced Simple@L5
Format settings, BVOP : 1
Format settings, QPel : No
Format settings, GMC : No warppoints
Format settings, Matrix : Default (H.263)
Codec ID : XVID
Codec ID/Hint : XviD
Duration : 1h 0mn
Bit rate : 1 433 Kbps
Width : 720 pixels
Height : 360 pixels
Display aspect ratio : 2.000
Frame rate : 23.976 fps
Color space : YUV
Chroma subsampling : 4:2:0
Bit depth : 8 bits
Scan type : Progressive
Compression mode : Lossy
Bits/(Pixel*Frame) : 0.231
Stream size : 618 MiB (84%)
Writing library : XviD 1.2.1 (UTC 2008-12-04)

Audio
ID : 1
Format : AC-3
Format/Info : Audio Coding 3
Mode extension : CM (complete main)
Format settings, Endianness : Big
Codec ID : 2000
Duration : 1h 0mn
Bit rate mode : Constant
Bit rate : 192 Kbps
Channel(s) : 2 channels
Channel positions : Front: L R
Sampling rate : 48.0 KHz
Compression mode : Lossy
Stream size : 82.8 MiB (11%)
Alignment : Split accross interleaves
Внимание! Раздача ведётся путём добавления новых серий; при каждом добавлении создаётся новый торрент. Чтобы начать докачку новой серии, пользователям необходимо сделать следующее:
(1) остановить скачивание,
(2) удалить старый торрент у себя из клиента (старые серии удалять не надо),
(3) скачать новый торрент и запустить его у себя в клиенте вместо старого, при этом указать клиенту путь в старую папку куда и должно происходить скачивание новых серий.
Ваш клиент при этом должен произвести хеширование (проверку) старой папки (если не производит сам - помогите ему сделать это), и будет докачивать только те серии которых у вас ещё нет. Старые серии при этом не удаляются, а продолжают раздаваться!
Eсли вы уже удалили старые серии, то предотвратить повторную закачку старых серий можно, отжав галочку в соответствующих местах при запуске нового торрента. По возможности, желательно не удалять старые серии как можно дольше чтобы релизёр не столько продолжал раздавать старые серии, а смог сконцентрироваться на новых.
pb.wtf



Скачать Оазис через торрент http://i90.fastpic.ru/big/2017/0321/36/620e593aff51c3051950727846806e36.jpeg Скачать фильм Оазис через торрент бесплантно в хорошем качестве Описание: Сериал основан на культовой «Книге странных новых вещей» Мишеля Фейбера. В центре сюжета «Оазиса» оказывается судовой священник, ... 7.8 10 5
Торрент: Зарегистрирован [2017-03-21 12:39] · скачан: 102 раз
Статус: √ проверено
Размер: 733 MB
Как cкачать? Как скачать Оазис через торрент | qTorrent

28-11-2019 20:33  

Отключить всю рекламу на сайте

21-03-2017 13:02 Оазис Скачать торрент  

Пилотная серия. Если по рейтингам пройдет и понравиться боссам канала то будет продолжение, как обычно наверное осеньюpb.wtf



21-03-2017 16:03 Оазис Скачать торрент  

начали зачетно звуковой ряд тоже в темуpb.wtf



    Дорогой пользователь! Огромная просьба, поблагодарите релизера, оцените раздачу и оставьте свои комментарий, если Вы скачали Оазис через торрент бесплатно! Внесите свою лепту в развитие PiratBit!
    Комментировать посты могут только пользователи прошедшие не сложную регистрацию
    Показать сообщения:    

    Оазис через торрент
    Скачать бесплатно Оазис
    Оазис скачать торрент
    Оазис смотреть онлайн
    Cкачать фильм Оазис бесплатно
    Оазис скачать торрент в хорошем качестве
    Оазис смотреть онлайн бесплатно в хорошем качестве


    Вы не можете начинать темы
    Вы не можете отвечать на сообщения
    Вы не можете редактировать свои сообщения
    Вы не можете удалять свои сообщения
    Вы не можете голосовать в опросах
    Вы не можете прикреплять файлы к сообщениям
    Вы можете скачивать файлы