Ссылка на приватное зеркало нашего сайта всего за 1$. Внимание количество ограничено!!!

2 сезон

iTunes

1 сезон

1

iTunes

iTunes

iTunes

1 сезон

RePack

30

ИГРА 18+

pack

ВАЖНО

!!Акция!!

Alien_RageХит недели

RePack

MK11
pack

Забери бонус

RePack

jed

!!Акция!!

Alien_Rage

RePack

fifa19

RePack

Assassins Creed: Odyssey

RePack

NEED FOR SPEED™ PAYBACK

4 сезон

9 сезон

Бесстыжие 9 сезон

Все сериалы

все сериалы на PB.wtf

RePack

FAR CRY 5
  

Подарок / The Gift (Джоэл Эдгертон) [2015, триллер, детектив, BDRip 1080p от еnvy / NNNB] DUB / RUS Transfer / Лицензия pb.wtf

Подарок через торрент pb.wtf

Раздают: 14 [ 0 KB/s ]
Размер: 6.28 GB | Добавлен: 3 года 7 мес. назад | Торрент скачан:177 раз
Скачать  

22-03-2017 05:28 Подарок Скачать торрент  

Информация о фильме

Русское название: Подарок
Оригинальное название: The Gift
Год выхода: 2015
Жанр: триллер, детектив
Режиссер: Джоэл Эдгертон
Выпущено: США, Австралия, Китай
Продолжительность: 01:47:42
Перевод: Дублированный
В ролях: Джейсон Бейтмен, Ребекка Холл, Джоэл Эдгертон, Эллисон Толман, Тим Гриффин, Бизи Филиппс, Адам Лазарр-Уайт, Бо Напп, Уенделл Пирс, Мирра Фолкс, Нэш Эдгертон, Дэвид Денман, Кэтрин Аселтон, Дэвид Джозеф Крэйг, Сьюзэн Мэй Прэтт, П.Дж. Бирн, Фелисити Прайс, Мелинда Аллен, Стэйси Бендер, Бет Круделе
Описание:

В жизнь Саймона врывается человек из далекого прошлого — его бывший одноклассник Гордо. Человек дружелюбный, немного неуклюжий, но с большими странностями. До встречи с одноклассником Саймон и его молодая супруга Робин считали свою жизнь идеальной, однако Гордо вносит в жизнь молодоженов свои коррективы.


Файл

Качество: BDRip 1080p (исходник Blu-Ray Disc)
Формат: MKV
Видео: 1920x798, 7724 Кбит/сек, 24,000 кадр/сек, AVC, x264, High@L4.1, 2.40:1, 0.210 Бит/[Пиксели*Кадры]
Аудио 1: AC-3, 640 Кбит/сек, 6 канала(ов), 48,0 КГц - Дублированный / Русский
Субтитры: Нет
Форсированные субтитры: Нет
Чаптеры (Главы): Нет






Автор Рипа: Группа:


Format : Matroska
Format version : Version 2
File size : 6.28 GiB
Duration : 1 h 47 min
Overall bit rate : 8 350 kb/s
Movie name : The Gift.(2015).BDRip.1080p.[envy]
Encoded date : UTC 2017-03-21 04:50:19
Writing application : mkvmerge v5.8.0 ('No Sleep / Pillow') built on Sep 2 2012 15:37:04
Writing library : libebml v1.2.3 + libmatroska v1.3.0

Video
ID : 1
Format : AVC
Format/Info : Advanced Video Codec
Format profile : High@L4.1
Format settings, CABAC : Yes
Format settings, ReFrames : 5 frames
Codec ID : V_MPEG4/ISO/AVC
Duration : 1 h 47 min
Bit rate : 7 724 kb/s
Width : 1 920 pixels
Height : 798 pixels
Display aspect ratio : 2.40:1
Frame rate mode : Constant
Frame rate : 24.000 FPS
Color space : YUV
Chroma subsampling : 4:2:0
Bit depth : 8 bits
Scan type : Progressive
Bits/(Pixel*Frame) : 0.210
Stream size : 5.68 GiB (90%)
Title : The Gift.(2015).BDRip.1080p.[envy]
Writing library : x264 core 148 r2744 b97ae06
Encoding settings : cabac=1 / ref=5 / deblock=1:-3:-3 / analyse=0x3:0x133 / me=umh / subme=11 / psy=1 / psy_rd=1.00:0.00 / mixed_ref=1 / me_range=32 / chroma_me=1 / trellis=2 / 8x8dct=1 / cqm=0 / deadzone=21,11 / fast_pskip=0 / chroma_qp_offset=-2 / threads=12 / lookahead_threads=1 / sliced_threads=0 / nr=0 / decimate=1 / interlaced=0 / bluray_compat=0 / constrained_intra=0 / bframes=5 / b_pyramid=2 / b_adapt=2 / b_bias=0 / direct=3 / weightb=1 / open_gop=0 / weightp=2 / keyint=240 / keyint_min=24 / scenecut=40 / intra_refresh=0 / rc=2pass / mbtree=0 / bitrate=7724 / ratetol=2.0 / qcomp=0.60 / qpmin=0 / qpmax=69 / qpstep=4 / cplxblur=20.0 / qblur=0.5 / ip_ratio=1.40 / pb_ratio=1.30 / aq=1:0.65
Language : English
Default : Yes
Forced : No

Audio
ID : 2
Format : AC-3
Format/Info : Audio Coding 3
Mode extension : CM (complete main)
Format settings, Endianness : Big
Codec ID : A_AC3
Duration : 1 h 47 min
Bit rate mode : Constant
Bit rate : 640 kb/s
Channel(s) : 6 channels
Channel positions : Front: L C R, Side: L R, LFE
Sampling rate : 48.0 kHz
Frame rate : 31.250 FPS (1536 spf)
Bit depth : 16 bits
Compression mode : Lossy
Stream size : 493 MiB (8%)
Title : Dub
Language : Russian
Default : Yes
Forced : No

pb.wtf



Скачать Подарок через торрент http://img11.lostpic.net/2017/03/22/e63d72d31ef4710b547208acacf9d65f.png Скачать фильм Подарок через торрент бесплантно в хорошем качестве Описание:В жизнь Саймона врывается человек из далекого прошлого — его бывший одноклассник Гордо. Человек дружелюбный, немного неуклюжий, но ... 10 10 3
Info! Золотая раздача, скачанное не засчитывается.
Торрент: Зарегистрирован [2017-03-22 05:28] · скачан: 177 раз
Статус: √ проверено
Размер: 6.28 GB
Как cкачать? Как скачать Подарок через торрент | qTorrent

28-11-2019 20:33  

Отключить всю рекламу на сайте

    Дорогой пользователь! Огромная просьба, поблагодарите релизера, оцените раздачу и оставьте свои комментарий, если Вы скачали Подарок через торрент бесплатно! Внесите свою лепту в развитие PiratBit!
    Комментировать посты могут только пользователи прошедшие не сложную регистрацию
    Показать сообщения:    

    Подарок через торрент
    Скачать бесплатно Подарок
    Подарок скачать торрент
    Подарок смотреть онлайн
    Cкачать фильм Подарок бесплатно
    Подарок скачать торрент в хорошем качестве
    Подарок смотреть онлайн бесплатно в хорошем качестве


    Вы не можете начинать темы
    Вы не можете отвечать на сообщения
    Вы не можете редактировать свои сообщения
    Вы не можете удалять свои сообщения
    Вы не можете голосовать в опросах
    Вы не можете прикреплять файлы к сообщениям
    Вы можете скачивать файлы