Ссылка на приватное зеркало нашего сайта всего за 1$. Внимание количество ограничено!!!

2 сезон

iTunes

1 сезон

1

2 сезон

2 сезон

iTunes

1 сезон

RePack

30

Ultimate

ВАЖНО

ИГРА 18+

pack

RePack

MK11
pack

Забери бонус

RePack

jed

!!Акция!!

Alien_Rage

RePack

fifa19

RePack

Assassins Creed: Odyssey

RePack

NEED FOR SPEED™ PAYBACK

4 сезон

9 сезон

Бесстыжие 9 сезон

Все сериалы

все сериалы на PB.wtf

RePack

FAR CRY 5
  

Мир Дикого запада / Westworld / Сезон 1 / Серии 1-10 из 10 (Джонатан Нолан, Джей Джей Абрамс, Лиза Джой) [2016, фантастика, триллер, вестерн, WEBRip] DUB [Amedia] pb.wtf

Мир Дикого запада через торрент pb.wtf

Раздают: 2 [ 0 KB/s ]
Размер: 12.86 GB | Добавлен: 3 года 8 мес. назад | Торрент скачан:1286 раз
Скачать  

22-03-2017 21:20 Мир Дикого запада Скачать торрент  

Мир Дикого запада / WestworldГод выпуска: 2016
Страна: США
Жанр: фантастика, триллер, вестерн
Всего серий: 10
Продолжительность: 10 х ~01:08:00
Перевод: Дубляж - [Amedia]

Режиссер: Джонатан Нолан, Джей Джей Абрамс, Лиза Джой

rating

В ролях:

Энтони Хопкинс (Форд), Родриго Санторо (Гектор), Ингрид Больсё Бердаль (Амистис), Эд Харрис (Человек в Чёрном), Эван Рэйчел Вуд (Долорес Абернати), Джеймс Марсден (Тедди Флуд), Тэнди Ньютон (Мейв Миллей), Джеффри Райт (Лоу) и др.

Описание:

В футуристическом парке развлечений андроиды на фоне для исторических декораций становятся рабами людей, выполняя рутинные задания, пока в один момент сбой в программе не превращает их в опасных убийц.

Качество: WEBRip
Формат: AVI
Видео кодек: XviD
Аудио кодек: AC3

Видео: 720x400 (1.80:1), 23.976 fps, XviD build 50 ~2000 kbps avg, 0.29 bit/pixel
Аудио#1: RUS: 48 kHz, AC3 Dolby Digital, 3/2 (L,C,R,l,r) + LFE ch, ~384 kbps
Аудио#2: ENG: 48 kHz, AC3 Dolby Digital, 3/2 (L,C,R,l,r) + LFE ch, ~384 kbps


скриншот   скриншот   скриншот   скриншот   скриншот  





Общее
Полное имя : D:\WESTWORLD (Season 01) CasStudio\Westworld.S01E01.WEBRip.Rus.Eng.CasStudio.avi
Формат : AVI
Формат/Информация : Audio Video Interleave
Размер файла : 1,39 Гбайт
Продолжительность : 1 ч. 11 м.
Общий поток : 2782 Кбит/сек
Программа кодирования : VirtualDubMod 1.5.10.3 | www.virtualdub-fr.org || (build 2550/release)
Библиотека кодирования : VirtualDubMod build 2550/release

Видео
Идентификатор : 0
Формат : MPEG-4 Visual
Профиль формата : Advanced Simple@L5
Параметр BVOP формата : 1
Параметр QPel формата : Нет
Параметр GMC формата : Без точки перехода
Параметр матрицы формата : Default (MPEG)
Идентификатор кодека : XVID
Идентификатор кодека/Подсказка : XviD
Продолжительность : 1 ч. 11 м.
Битрейт : 2001 Кбит/сек
Ширина : 720 пикселей
Высота : 400 пикселей
Соотношение сторон : 16:9
Частота кадров : 23,976 (23976/1000) кадра/сек
Цветовое пространство : YUV
Субдискретизация насыщенности : 4:2:0
Битовая глубина : 8 бит
Тип развёртки : Прогрессивная
Метод сжатия : С потерями
Бит/(Пиксели*Кадры) : 0.290
Размер потока : 1,00 Гбайт (72%)
Библиотека кодирования : XviD 73

Аудио #1
Идентификатор : 1
Формат : AC-3
Формат/Информация : Audio Coding 3
Расширение режима : CM (complete main)
Параметр Endianness формата : Big
Идентификатор кодека : 2000
Продолжительность : 1 ч. 11 м.
Вид битрейта : Постоянный
Битрейт : 384 Кбит/сек
Каналы : 6 каналов
Расположение каналов : Front: L C R, Side: L R, LFE
Частота : 48,0 КГц
Частота кадров : 31,250 кадров/сек (1536 spf)
Метод сжатия : С потерями
Размер потока : 197 Мбайт (14%)
Выравнивание : Разделение по промежуткам
Продолжительность промежутка : 42 мс. (1,00 видеокадр)
Время предзагрузки промежутка : 500 мс.

Аудио #2
Идентификатор : 2
Формат : AC-3
Формат/Информация : Audio Coding 3
Расширение режима : CM (complete main)
Параметр Endianness формата : Big
Идентификатор кодека : 2000
Продолжительность : 1 ч. 11 м.
Вид битрейта : Постоянный
Битрейт : 384 Кбит/сек
Каналы : 6 каналов
Расположение каналов : Front: L C R, Side: L R, LFE
Частота : 48,0 КГц
Частота кадров : 31,250 кадров/сек (1536 spf)
Метод сжатия : С потерями
Размер потока : 197 Мбайт (14%)
Выравнивание : Разделение по промежуткам
Продолжительность промежутка : 42 мс. (1,00 видеокадр)
Время предзагрузки промежутка : 500 мс.

pb.wtf



Скачать Мир Дикого запада через торрент http://s019.radikal.ru/i611/1703/d9/fcf7d472f2c1.png Скачать фильм Мир Дикого запада через торрент бесплантно в хорошем качестве Описание: В футуристическом парке развлечений андроиды на фоне для исторических декораций становятся рабами людей, выполняя рутинные ... 9.9 10 17
Info! Золотая раздача, скачанное не засчитывается.
Торрент: Зарегистрирован [2017-03-22 21:20] · скачан: 1 286 раз
Статус: √ проверено
Размер: 12.86 GB
Как cкачать? Как скачать Мир Дикого запада через торрент | qTorrent

% Раздел Тема Автор DL S | L
Зарубежные сериалы [ 29.52 GB ] Мир Дикого Запада / Westworld / Сезон: 3 / Серии: 1-8 из 8 [2020 BDRip-HEVC 1080p] Кравец-Рекордз NewStudio AlexFilm RealOldGamer Скачать
4 | 0
Зарубежные сериалы [ 54.84 GB ] Мир дикого запада / Westworld / Сезон: 1 / Серии: 1-10 из 10 [2016 WEBRip 1080p] [MVO] killermax2013 Скачать
1 | 0
Зарубежные сериалы [ 36.31 GB ] Мир Дикого Запада / Westworld / Сезон: 3 / Серии: 1-8 из 8 [2020 WEB-DL 1080p] MVO [AlexFilm] bober100 Скачать
1 | 0
Зарубежные сериалы [ 21.69 GB ] Мир Дикого Запада / Westworld / Сезон: 3 / Серии: 1-5 из 8 [2020 WEB-DL 1080p] MVO [TVShows] bober100 Скачать
1 | 0
Зарубежные сериалы [ 39.1 GB ] Мир Дикого Запада / Westworld / Сезон: 3 / Серии: 1-8 из 8 [2020 WEB-DL 1080p] DUB [Кравец-Рекордз / Amedia] +3MVO bober100 Скачать
3 | 0
Зарубежные сериалы [ 5.01 GB ] Мир дикого запада / Westworld / Сезон: 3 / Серии: 1- из 10 [2020 WEBRip 1080p] [MVO] killermax2013 Скачать
1 | 0
Зарубежные сериалы [ 35.23 GB ] Мир дикого запада / Westworld / Сезон: 3 / Серии: 1-8 из 8 [2020 WEB-DL 1080p] killermax2013 Скачать
1 | 0

28-11-2019 20:33  

Отключить всю рекламу на сайте

    Дорогой пользователь! Огромная просьба, поблагодарите релизера, оцените раздачу и оставьте свои комментарий, если Вы скачали Мир Дикого запада через торрент бесплатно! Внесите свою лепту в развитие PiratBit!
    Комментировать посты могут только пользователи прошедшие не сложную регистрацию
    Показать сообщения:    

    Мир Дикого запада через торрент
    Скачать бесплатно Мир Дикого запада
    Мир Дикого запада скачать торрент
    Мир Дикого запада смотреть онлайн
    Cкачать фильм Мир Дикого запада бесплатно
    Мир Дикого запада скачать торрент в хорошем качестве
    Мир Дикого запада смотреть онлайн бесплатно в хорошем качестве


    Вы не можете начинать темы
    Вы не можете отвечать на сообщения
    Вы не можете редактировать свои сообщения
    Вы не можете удалять свои сообщения
    Вы не можете голосовать в опросах
    Вы не можете прикреплять файлы к сообщениям
    Вы можете скачивать файлы