новый адрес
Ссылка на приватное зеркало всего за 1$. Внимание количество ограничено!!!

iTunes

1+1

iTunes

мы

WEB-DL

1

iTunes

Чернобыль

iTunes

Ральф против интернета

Лицензия

ПШазам

Лицензия

Оно 2

Лицензия

30
pack

Вам бонус

ВАЖНО

!!Акция!!

Alien_RageХит недели

RePack

Resident Evil 21

ИГРА 18+

pack

RePack

jed

!!Акция!!

Alien_Rage

RePack

fifa19

RePack

Assassins Creed: Odyssey

RePack

NEED FOR SPEED™ PAYBACK

3 сезон

9 сезон

Бесстыжие 9 сезон

Все сериалы

все сериалы на PB.wtf

RePack

FAR CRY 5
Ребята, катастрофически не хватает 1900р. для оплаты серверов за Октябрь (всвязи с блокировками трафик упал в 3 раза), 1-2р., выручайте.
  

Ленинградская симфония (Захар Аграненко) [1957, СССР, драма, военный, SATRip от AVP Studio] pb.wtf

Ленинградская симфония через торрент pb.wtf

Размер: 1.46 GB | Добавлен: 2 года 8 мес. назад | Торрент скачан:6 раз
Скачать  

23-03-2017 08:13 Ленинградская симфония Скачать торрент  

Ленинградская симфония
Страна: СССР
Производство: Мосфильм

Жанр: драма, военный
Год выпуска: 1957
Продолжительность: 01:31:40

Перевод: Не требуется
Cубтитры: нет
Оригинальная аудиодорожка: русский

Режиссер: Захар Аграненко

В ролях:
Владимир Соловьёв, Ольга Малько, Сергей Курилов, Елена Строева, Роберт Бушков, Жанна Сухопольская, Николай Крючков, Максим Штраух, Марк Перцовский, Михаил Туманишвили, Юрий Кротенко, Юрий Киреев, Валентин Печников, Владимир Борискин, Владимир Дамский, Лариса Матвеенко, Галина Шостко, Евгений Тетерин, Николай Новлянский, Сережа Бунеев...
Об актёрах подробней

Описание:
Лето 1942 года. В Дом радио Ленинграда прибывает партитура Седьмой симфонии Д.Шостаковича. Исполнить ее невозможно, так как в оркестре осталось мало музыкантов. Командование присылает музыкантов со всех участков фронта. В день, когда Гитлер поклялся захватить Ленинград, симфония впервые прозвучала по радио.

Источник: DVB
Качество видео: SATRip
Формат видео: AVI

Видео: 704x528 (4:3), 25 fps, XviD ~ 2079 kbps avg, 0.224 bit/pixel
Аудио: 48 kHz, Dolby Digital AC3 2.0, 192 kbps

Раздача от:
Общее
Полное имя : Leningradskaya.simfoniya.1957.SATRip_[New-team]_by_AVP_Studio.avi
Формат : AVI
Формат/Информация : Audio Video Interleave
Размер файла : 1,46 Гбайт
Продолжительность : 1 ч. 31 м.
Общий поток : 2281 Кбит/сек
Программа кодирования : VirtualDubMod 1.5.10.3 | www.virtualdub-fr.org || (build 2550/release)
Библиотека кодирования : VirtualDubMod build 2550/release

Видео
Идентификатор : 0
Формат : MPEG-4 Visual
Профиль формата : Advanced Simple@L5
Параметр BVOP формата : 1
Параметр QPel формата : Нет
Параметр GMC формата : Без точки перехода
Параметр матрицы формата : Выборочная
Идентификатор кодека : XVID
Идентификатор кодека/Подсказка : XviD
Продолжительность : 1 ч. 31 м.
Битрейт : 2079 Кбит/сек
Ширина : 704 пикселя
Высота : 528 пикселей
Соотношение сторон : 4:3
Частота кадров : 25,000 кадров/сек
Цветовое пространство : YUV
Субдискретизация насыщенности : 4:2:0
Битовая глубина : 8 бит
Тип развёртки : Прогрессивная
Метод сжатия : С потерями
Бит/(Пиксели*Кадры) : 0.224
Размер потока : 1,33 Гбайт (91%)
Библиотека кодирования : XviD 73

Аудио
Идентификатор : 1
Формат : AC-3
Формат/Информация : Audio Coding 3
Параметр Endianness формата : Big
Идентификатор кодека : 2000
Продолжительность : 1 ч. 31 м.
Вид битрейта : Постоянный
Битрейт : 192 Кбит/сек
Каналы : 2 канала
Расположение каналов : Front: L R
Частота : 48,0 КГц
Частота кадров : 31,250 кадров/сек (1536 spf)
Битовая глубина : 16 бит
Метод сжатия : С потерями
Размер потока : 126 Мбайт (8%)
Выравнивание : Разделение по промежуткам
Продолжительность промежутка : 40 мс. (1,00 видеокадр)
Время предзагрузки промежутка : 500 мс
pb.wtf



Скачать Ленинградская симфония через торрент http://s016.radikal.ru/i337/1703/f0/14f5467e1a3e.png Скачать фильм Ленинградская симфония через торрент бесплантно в хорошем качестве Описание:Лето 1942 года. В Дом радио Ленинграда прибывает партитура Седьмой симфонии Д.Шостаковича. Исполнить ее невозможно, так как в ... 5 10 1
Info! Золотая раздача, скачанное не засчитывается.
Торрент: Зарегистрирован [2017-03-23 08:13] · скачан: 6 раз
Статус: √ проверено
Размер: 1.46 GB
Как cкачать? Как скачать Ленинградская симфония через торрент | qTorrent

% Раздел Тема Автор DL S | L
Кино СССР [ 1.46 GB ] Ленинградская симфония [1957 СССР военный SATRip-AVC от AVP Studio] AVP Studio Скачать
1 | 0
Кино СССР [ 745 MB ] Ленинградская симфония [1957 СССР военный SATRip от AVP Studio] AVP Studio Скачать
1 | 0

28-11-2019 20:33  

Отключить всю рекламу на сайте

    Дорогой пользователь! Огромная просьба, поблагодарите релизера, оцените раздачу и оставьте свои комментарий, если Вы скачали Ленинградская симфония через торрент бесплатно! Внесите свою лепту в развитие PiratBit!
    Комментировать посты могут только пользователи прошедшие не сложную регистрацию
    Показать сообщения:    

    Ленинградская симфония через торрент
    Скачать бесплатно Ленинградская симфония
    Ленинградская симфония скачать торрент
    Ленинградская симфония смотреть онлайн
    Cкачать фильм Ленинградская симфония бесплатно
    Ленинградская симфония скачать торрент в хорошем качестве
    Ленинградская симфония смотреть онлайн бесплатно в хорошем качестве


    Вы не можете начинать темы
    Вы не можете отвечать на сообщения
    Вы не можете редактировать свои сообщения
    Вы не можете удалять свои сообщения
    Вы не можете голосовать в опросах
    Вы не можете прикреплять файлы к сообщениям
    Вы можете скачивать файлы