новый адрес
Мега распродажа FORZA HORIZON 4 ULTIMATE+ВСЕ DLC+ОНЛАЙН всего за 499р. 349 руб. (супер цена). Внимание количество ограничено!!!

iTunes

1+1

iTunes

мы

iTunes

1

iTunes

Чернобыль

iTunes

Ральф против интернета

Лицензия

ПШазам

Лицензия

Оно 2

Лицензия

30
pack

ВАЖНО

!!Акция!!

Alien_RageХит недели

RePack

Resident Evil 21

ИГРА 18+

pack

RePack

jed

!!Акция!!

Alien_Rage

RePack

fifa19

RePack

Assassins Creed: Odyssey

RePack

NEED FOR SPEED™ PAYBACK

3 сезон

9 сезон

Бесстыжие 9 сезон

Все сериалы

все сериалы на PB.wtf

RePack

FAR CRY 5
Ребята, катастрофически не хватает 1900р. для оплаты серверов за Октябрь (всвязи с блокировками трафик упал в 3 раза), 1-2р., выручайте.
  

Ленинградская симфония (Захар Аграненко) [1957, СССР, драма, военный, SATRip от AVP Studio] pb.wtf

Ленинградская симфония через торрент pb.wtf

Размер: 745 MB | Добавлен: 2 года 7 мес. назад | Торрент скачан:6 раз
Скачать  

23-03-2017 08:14 Ленинградская симфония Скачать торрент  

Ленинградская симфония
Страна: СССР
Производство: Мосфильм

Жанр: драма, военный
Год выпуска: 1957
Продолжительность: 01:31:40

Перевод: Не требуется
Cубтитры: нет
Оригинальная аудиодорожка: русский

Режиссер: Захар Аграненко

В ролях:
Владимир Соловьёв, Ольга Малько, Сергей Курилов, Елена Строева, Роберт Бушков, Жанна Сухопольская, Николай Крючков, Максим Штраух, Марк Перцовский, Михаил Туманишвили, Юрий Кротенко, Юрий Киреев, Валентин Печников, Владимир Борискин, Владимир Дамский, Лариса Матвеенко, Галина Шостко, Евгений Тетерин, Николай Новлянский, Сережа Бунеев...
Об актёрах подробней

Описание:
Лето 1942 года. В Дом радио Ленинграда прибывает партитура Седьмой симфонии Д.Шостаковича. Исполнить ее невозможно, так как в оркестре осталось мало музыкантов. Командование присылает музыкантов со всех участков фронта. В день, когда Гитлер поклялся захватить Ленинград, симфония впервые прозвучала по радио.

Источник: DVB
Качество видео: SATRip
Формат видео: AVI

Видео: 640x480 (4:3), 25 fps, XviD ~ 999 kbps avg, 0.130 bit/pixel
Аудио: 48 kHz, MP3 2.0, 128 kbps

Раздача от:
Общее
Полное имя : Leningradskaya.simfoniya.1957.SATRip-745_[New-team]_by_AVP_Studio.avi
Формат : AVI
Формат/Информация : Audio Video Interleave
Размер файла : 745 Мбайт
Продолжительность : 1 ч. 31 м.
Общий поток : 1137 Кбит/сек
Программа кодирования : VirtualDubMod 1.5.10.3 | www.virtualdub-fr.org || (build 2550/release)
Библиотека кодирования : VirtualDubMod build 2550/release

Видео
Идентификатор : 0
Формат : MPEG-4 Visual
Профиль формата : Advanced Simple@L5
Параметр BVOP формата : 1
Параметр QPel формата : Нет
Параметр GMC формата : Без точки перехода
Параметр матрицы формата : Выборочная
Идентификатор кодека : XVID
Идентификатор кодека/Подсказка : XviD
Продолжительность : 1 ч. 31 м.
Битрейт : 999 Кбит/сек
Ширина : 640 пикселей
Высота : 480 пикселей
Соотношение сторон : 4:3
Частота кадров : 25,000 кадров/сек
Цветовое пространство : YUV
Субдискретизация насыщенности : 4:2:0
Битовая глубина : 8 бит
Тип развёртки : Прогрессивная
Метод сжатия : С потерями
Бит/(Пиксели*Кадры) : 0.130
Размер потока : 655 Мбайт (88%)
Библиотека кодирования : XviD 73

Аудио
Идентификатор : 1
Формат : MPEG Audio
Версия формата : Version 1
Профиль формата : Layer 3
Идентификатор кодека : 55
Идентификатор кодека/Подсказка : MP3
Продолжительность : 1 ч. 31 м.
Вид битрейта : Постоянный
Битрейт : 128 Кбит/сек
Каналы : 2 канала
Частота : 48,0 КГц
Метод сжатия : С потерями
Размер потока : 83,9 Мбайт (11%)
Выравнивание : Соединение по промежуткам
Продолжительность промежутка : 40 мс. (1,00 видеокадр)
Время предзагрузки промежутка : 504 мс.
Библиотека кодирования : LAME3.99r
Настройки программы : -m s -V 4 -q 2 -lowpass 17 -b 128
pb.wtf



Скачать Ленинградская симфония через торрент http://s016.radikal.ru/i337/1703/f0/14f5467e1a3e.png Скачать фильм Ленинградская симфония через торрент бесплантно в хорошем качестве Описание:Лето 1942 года. В Дом радио Ленинграда прибывает партитура Седьмой симфонии Д.Шостаковича. Исполнить ее невозможно, так как в ... 5 10 1
Info! Золотая раздача, скачанное не засчитывается.
Торрент: Зарегистрирован [2017-03-23 08:14] · скачан: 6 раз
Статус: √ проверено
Размер: 745 MB
Как cкачать? Как скачать Ленинградская симфония через торрент | qTorrent

% Раздел Тема Автор DL S | L
Кино СССР [ 1.46 GB ] Ленинградская симфония [1957 СССР военный SATRip-AVC от AVP Studio] AVP Studio Скачать
1 | 0
Кино СССР [ 1.46 GB ] Ленинградская симфония [1957 СССР военный SATRip от AVP Studio] AVP Studio Скачать
1 | 0


>> Регистрируемся здесь <<






Отзывы и комментарии о схеме читаем и пишем здесь: ---> Отзывы и комментарии о схеме

Новые благодарочки в телеграм довольных пользователей:
скриншот   скриншот   скриншот   скриншот   скриншот
    Дорогой пользователь! Огромная просьба, поблагодарите релизера, оцените раздачу и оставьте свои комментарий, если Вы скачали Ленинградская симфония через торрент бесплатно! Внесите свою лепту в развитие PiratBit!
    Комментировать посты могут только пользователи прошедшие не сложную регистрацию
    Показать сообщения:    

    Ленинградская симфония через торрент
    Скачать бесплатно Ленинградская симфония
    Ленинградская симфония скачать торрент
    Ленинградская симфония смотреть онлайн
    Cкачать фильм Ленинградская симфония бесплатно
    Ленинградская симфония скачать торрент в хорошем качестве
    Ленинградская симфония смотреть онлайн бесплатно в хорошем качестве


    Вы не можете начинать темы
    Вы не можете отвечать на сообщения
    Вы не можете редактировать свои сообщения
    Вы не можете удалять свои сообщения
    Вы не можете голосовать в опросах
    Вы не можете прикреплять файлы к сообщениям
    Вы можете скачивать файлы