Ссылка на приватное зеркало нашего сайта всего за 1$. Внимание количество ограничено!!!

2 сезон

iTunes

1 сезон

1

2 сезон

2 сезон

iTunes

1 сезон

RePack

30

Ultimate

ВАЖНО

ИГРА 18+

pack

RePack

MK11
pack

Забери бонус

RePack

jed

!!Акция!!

Alien_Rage

RePack

fifa19

RePack

Assassins Creed: Odyssey

RePack

NEED FOR SPEED™ PAYBACK

4 сезон

9 сезон

Бесстыжие 9 сезон

Все сериалы

все сериалы на PB.wtf

RePack

FAR CRY 5
  

Глаза моей матери / The Eyes of My Mother (Nicolas Pesce ) [2016, ужасы, драма, BD Remux 1080p] Любительский (двухголосый закадровый) [HamsterStudio), VO, [BadBajo] + [Sub] (Rus, Eng) pb.wtf

Глаза моей матери через торрент pb.wtf

Размер: 16.26 GB | Добавлен: 3 года 8 мес. назад | Торрент скачан:4 раза
Скачать  

23-03-2017 15:46 Глаза моей матери Скачать торрент  

Глаза моей матери / The Eyes of My Mother

Год выпуска: 2016
Выпущено: США / Borderline Presents, Tandem Pictures
Жанр: ужасы, драма

Продолжительность: 01:16:10
Перевод: Любительский (двухголосый закадровый) [HamsterStudio (Алексей Соловьёв и Анастасия Снегирёва)], Любительский (одноголосый) [BadBajo]
Режиссер: Nicolas Pesce
В ролях: Кика Магалхэс (Francisca), Paul Nazak (Father), Дайан Агостини (Mother), Olivia Bond (Young Francisca), Уилл Брилл (Charlie), Joey Curtis-Green (Antonio), Флора Диаз (Lucy), Клара Вонг (Kimiko)
Описание:
Маленькая Франциска жила с мамой и папой в уединённом доме в сельской местности. Всё было хорошо и спокойно, пока однажды с их семьёй не произошла трагедия, после чего девушка выросла немного странной.
Рейтинг:
rating
MPAA: R - Лицам до 17 лет обязательно присутствие взрослого
Качество: BD Remux (1080p)
Формат: MKV
Видео: MPEG-4 AVC , 1920x1080, 23,976 fps, 26998 Кбит/с
Аудио №1: русский (AC3, 6 ch, 384 Кбит/с/48 kHz)Любительский (двухголосый закадровый) (HamsterStudio)
Аудио №2: русский (AC3, 6 ch, 384 Кбит/с/48 kHz) Любительский одноголосый (BadBajo)
Аудио №3: английский (DTS-HD MA, 6 ch, 2962 Кбит/с)/48 kHz) (Original)
Субтитры: Русские, английские



РЕКЛАМЫ НЕТ!
General
Unique ID : 209340714759018682742794015853478316177 (0x9D7D8E1BE91DB71A9AFF590828B28891)
Complete name Glaza_Moei_Materi.2016.BDRemux 1080p_FreeRutor.mkv
Format : Matroska
Format version : Version 2
File size : 16.3 GiB
Duration : 1 h 16 min
Overall bit rate mode : Variable
Overall bit rate : 30.6 Mb/s
Movie name : The Eyes of My Mother (2016) BDRemux 1080p_FreeRutor_grab777
Encoded date : UTC 2017-03-23 00:19:15
Writing application : mkvmerge v5.8.0 ('No Sleep / Pillow') built on Sep 2 2012 15:37:04
Writing library : libebml v1.2.3 + libmatroska v1.3.0
Cover : Yes
Attachments : small_cover.jpg / small_cover_land.jpg / cover.jpg / cover_land.jpg

Video
ID : 1
Format : AVC
Format/Info : Advanced Video Codec
Format profile : High@L4.1
Format settings, CABAC : Yes
Format settings, ReFrames : 4 frames
Codec ID : V_MPEG4/ISO/AVC
Duration : 1 h 16 min
Bit rate mode : Variable
Maximum bit rate : 38.0 Mb/s
Width : 1 920 pixels
Height : 1 080 pixels
Display aspect ratio : 16:9
Frame rate mode : Constant
Frame rate : 23.976 (24000/1001) FPS
Color space : YUV
Chroma subsampling : 4:2:0
Bit depth : 8 bits
Scan type : Progressive
Title : by_grab777
Language : English
Default : Yes
Forced : No

Audio #1
ID : 2
Format : AC-3
Format/Info : Audio Coding 3
Mode extension : CM (complete main)
Format settings, Endianness : Big
Codec ID : A_AC3
Duration : 1 h 16 min
Bit rate mode : Constant
Bit rate : 384 kb/s
Channel(s) : 6 channels
Channel positions : Front: L C R, Side: L R, LFE
Sampling rate : 48.0 kHz
Frame rate : 31.250 FPS (1536 spf)
Compression mode : Lossy
Stream size : 209 MiB (1%)
Title : DVO (HamsterStudio)
Language : Russian
Default : Yes
Forced : No

Audio #2
ID : 3
Format : AC-3
Format/Info : Audio Coding 3
Mode extension : CM (complete main)
Format settings, Endianness : Big
Codec ID : A_AC3
Duration : 1 h 16 min
Bit rate mode : Constant
Bit rate : 384 kb/s
Channel(s) : 6 channels
Channel positions : Front: L C R, Side: L R, LFE
Sampling rate : 48.0 kHz
Frame rate : 31.250 FPS (1536 spf)
Compression mode : Lossy
Stream size : 209 MiB (1%)
Title : VO (BadBajo)
Language : Russian
Default : No
Forced : No

Audio #3
ID : 4
Format : DTS
Format/Info : Digital Theater Systems
Format profile : MA / Core
Mode : 16
Format settings, Endianness : Big
Codec ID : A_DTS
Duration : 1 h 16 min
Bit rate mode : Variable / Constant
Bit rate : Unknown / 1 509 kb/s
Channel(s) : 6 channels
Channel positions : Front: L C R, Side: L R, LFE
Sampling rate : 48.0 kHz
Frame rate : 93.750 FPS (512 spf)
Bit depth : 24 bits
Compression mode : Lossless / Lossy
Title : Original
Language : English
Default : No
Forced : No

Text #1
ID : 5
Format : UTF-8
Codec ID : S_TEXT/UTF8
Codec ID/Info : UTF-8 Plain Text
Language : Russian
Default : No
Forced : No

Text #2
ID : 6
Format : UTF-8
Codec ID : S_TEXT/UTF8
Codec ID/Info : UTF-8 Plain Text
Language : English
Default : No
Forced : No

Text #3
ID : 7
Format : UTF-8
Codec ID : S_TEXT/UTF8
Codec ID/Info : UTF-8 Plain Text
Language : English
Default : No
Forced : No

Text #4
ID : 8
Format : PGS
Muxing mode : zlib
Codec ID : S_HDMV/PGS
Codec ID/Info : Picture based subtitle format used on BDs/HD-DVDs
Language : Spanish
Default : No
Forced : No

Menu
00:00:00.000 : en:Chapter 01
00:05:02.802 : en:Chapter 02
00:14:02.508 : en:Chapter 03
00:21:21.280 : en:Chapter 04
00:27:52.629 : en:Chapter 05
00:37:54.188 : en:Chapter 06
00:45:13.293 : en:Chapter 07
00:48:51.845 : en:Chapter 08
00:56:52.367 : en:Chapter 09
01:03:17.335 : en:Chapter 10
01:08:59.510 : en:Chapter 11
01:12:25.341 : en:Chapter 12


pb.wtf
Kschultz писал(а):

сэмпл с AVI файла для оценки звука



Скачать Глаза моей матери через торрент http://pic1.kartinco.top/images/11/ujrn3.jpg Скачать фильм Глаза моей матери через торрент бесплантно в хорошем качестве Описание: Маленькая Франциска жила с мамой и папой в уединённом доме в сельской местности. Всё было хорошо и спокойно, пока однажды с их ... 10 10 2
Торрент: Зарегистрирован [2017-03-23 15:46] · скачан: 4 раз
Статус: T временная
Размер: 16.26 GB
Как cкачать? Как скачать Глаза моей матери через торрент | qTorrent

% Раздел Тема Автор DL S | L
T Фильмы 2016 (Звук TS, Cam, VO, DVO) [ 1.35 GB ] Глаза моей матери / The Eyes of My Mother [2016 WEB-DLRip] VO [BadBajo] bober100 Скачать
1 | 0

28-11-2019 20:33  

Отключить всю рекламу на сайте

    Дорогой пользователь! Огромная просьба, поблагодарите релизера, оцените раздачу и оставьте свои комментарий, если Вы скачали Глаза моей матери через торрент бесплатно! Внесите свою лепту в развитие PiratBit!
    Комментировать посты могут только пользователи прошедшие не сложную регистрацию
    Показать сообщения:    

    Глаза моей матери через торрент
    Скачать бесплатно Глаза моей матери
    Глаза моей матери скачать торрент
    Глаза моей матери смотреть онлайн
    Cкачать фильм Глаза моей матери бесплатно
    Глаза моей матери скачать торрент в хорошем качестве
    Глаза моей матери смотреть онлайн бесплатно в хорошем качестве


    Вы не можете начинать темы
    Вы не можете отвечать на сообщения
    Вы не можете редактировать свои сообщения
    Вы не можете удалять свои сообщения
    Вы не можете голосовать в опросах
    Вы не можете прикреплять файлы к сообщениям
    Вы можете скачивать файлы