2 сезон

iTunes

MVO

1

2 сезон

iTunes

iTunes

1 сезон

RePack

30

Ultimate

ВАЖНО

ИГРА 18+

pack

RePack

MK11
pack

Легкие деньги

RePack

jed

RePack

fifa19

RePack

RDR2

RePack

NEED FOR SPEED™ PAYBACK

4 сезон

9 сезон

Бесстыжие 9 сезон

Все сериалы

все сериалы на PB.wtf

RePack

FAR CRY 5

Anonymous, добрый вечер, мы не успеваем собрать деньги на оплату серверов за декабрь и январь, помогите нам пожалуйста в это трудное время. В качестве благодарности мы отключим Вам всю рекламу на сайте (укажите свой ник в строку Ваше имя)!

×
  
Magnet ссылка

Призраки Элоиз / Eloise (Роберт Легато) [2017 г., Ужасы, Триллер, WEB-DLRip, Дубляж iTunes] pb.wtf

Призраки Элоиз через торрент pb.wtf

Размер: 1.37 GB | Добавлен: 3 года 9 мес. назад | Торрент скачан:444 раза
Скачать  

23-03-2017 16:05 Призраки Элоиз Скачать торрент  

Призраки Элоиз / Eloise
Год выпуска: 2017
Страна: США, Buy Here Pay Here Entertainment, Palm Drive Productions
Жанр: Ужасы, Триллер
Продолжительность: 01:32:56
Перевод: Дубляж iTunes
Субтитры: нет

Режиссер: Роберт Легато



В ролях: Элиза Душку, Роберт Патрик, Чейс Кроуфорд, Брэндон Т. Джексон, Мартин Клебба, П.Дж. Бирн, Николь Форестер, Джордан Тровиллион, Эмбер Вилан, Рики Уэйн

Описание: На что бы вы пошли ради двух миллионов долларов? Четверо друзей тайно проникают в заброшенную психиатрическую клинику «Элоиз». Герои должны найти документы, которые позволят одному из них получить огромное наследство. Но для этого им придется выбраться из настоящей ловушки времени и пространства, наполненной зловещими призраками.

Качество: WEB-DLRip
Формат: AVI
Видео кодек: XviD
Аудио кодек: AC3
Видео: Xvid, 720х304, ~1724 Kbps,23.976 FPS
Аудио: AC3, 6 ch, 384 Kbps ,48.0 kHz




\Eloise.2017.D.iT.WEB-DLRip.avi
Format : AVI
Format/Info : Audio Video Interleave
File size : 1.37 GiB
Duration : 1 h 32 min
Overall bit rate : 2 117 kb/s
Movie name : Rustorrents.pro
Writing application : VirtualDubMod 1.5.10.3 | www.virtualdub-fr.org || (build 2550/release)

Video
ID : 0
Format : MPEG-4 Visual
Format profile : Advanced Simple@L5
Format settings, BVOP : 2
Format settings, QPel : No
Format settings, GMC : No warppoints
Format settings, Matrix : Custom
Codec ID : XVID
Codec ID/Hint : XviD
Duration : 1 h 32 min
Bit rate : 1 724 kb/s
Width : 720 pixels
Height : 304 pixels
Display aspect ratio : 2.35:1
Frame rate : 23.976 (24000/1001) FPS
Original frame rate : 23.976 (23976/1000) FPS
Color space : YUV
Chroma subsampling : 4:2:0
Bit depth : 8 bits
Scan type : Progressive
Compression mode : Lossy
Bits/(Pixel*Frame) : 0.328
Stream size : 1.11 GiB (81%)
Writing library : XviD 1.2.1 (UTC 2008-12-04)

Audio
ID : 1
Format : AC-3
Format/Info : Audio Coding 3
Mode extension : CM (complete main)
Format settings, Endianness : Big
Codec ID : 2000
Duration : 1 h 32 min
Bit rate mode : Constant
Bit rate : 384 kb/s
Channel(s) : 6 channels
Channel positions : Front: L C R, Side: L R, LFE
Sampling rate : 48.0 kHz
Frame rate : 31.250 FPS (1536 spf)
Bit depth : 16 bits
Compression mode : Lossy
Stream size : 254 MiB (18%)
Alignment : Split accross interleaves
Interleave, duration : 42 ms (1.00 video frame)
Interleave, preload duratio : 500 ms

pb.wtf



Скачать Призраки Элоиз через торрент http://i89.fastpic.ru/big/2017/0323/00/1b16becc13d5804e02d93d0c4b9e7100.jpg Скачать фильм Призраки Элоиз через торрент бесплантно в хорошем качестве Описание: На что бы вы пошли ради двух миллионов долларов? Четверо друзей тайно проникают в заброшенную психиатрическую клинику «Элоиз». ... 9.1 10 16
Торрент: Зарегистрирован [2017-03-23 16:05] · скачан: 444 раз
Статус: √ проверено
Размер: 1.37 GB
Как cкачать? Как скачать Призраки Элоиз через торрент | UTorrent

% Раздел Тема Автор DL S | L
Фильмы [HD 720p, 1080p] (Хороший звук DUB, MVO) [ 7.3 GB ] Призраки Элоиз / Eloise [2016 BDRip 720p] DUB () Расширенная версия / Extended Леонид Ильич Скачать
1 | 0
# Фильмы (WEB-DL 720p, 1080p) [ 3.09 GB ] Призраки Элоиз / Eloise [2017 WEB-DLRip 720p ] POCIK Скачать
1 | 0
Фильмы 2017 [DVDrip, WEB-DLRip, HDrip] (DUB, MVO) [ 1.37 GB ] Призраки Элоиз / Eloise [2017 HDRip] [Extended] killermax2013 Скачать
2 | 0

28-11-2019 20:33  

Отключить всю рекламу на сайте

24-03-2017 14:33 Призраки Элоиз Скачать торрент  

не тратьте время pb.wtf



24-03-2017 17:29 Призраки Элоиз Скачать торрент  

gnev78 писал(а):

не тратьте время

Спасибо за совет, не буду)pb.wtf



26-03-2017 07:12 Призраки Элоиз Скачать торрент  

Я помню Элизу Душку в первом "повороте не туда"... Симпатичная мадам была, а что с ней сейчас стало по прошествии 14 лет. Вроде не нищая, бухает по ходу pb.wtf



    Дорогой пользователь! Огромная просьба, поблагодарите релизера, оцените раздачу и оставьте свои комментарий, если Вы скачали Призраки Элоиз через торрент бесплатно! Внесите свою лепту в развитие PiratBit!
    Комментировать посты могут только пользователи прошедшие не сложную регистрацию
    Показать сообщения:    

    Призраки Элоиз через торрент
    Скачать бесплатно Призраки Элоиз
    Призраки Элоиз скачать торрент
    Призраки Элоиз смотреть онлайн
    Cкачать фильм Призраки Элоиз бесплатно
    Призраки Элоиз скачать торрент в хорошем качестве
    Призраки Элоиз смотреть онлайн бесплатно в хорошем качестве


    Вы не можете начинать темы
    Вы не можете отвечать на сообщения
    Вы не можете редактировать свои сообщения
    Вы не можете удалять свои сообщения
    Вы не можете голосовать в опросах
    Вы не можете прикреплять файлы к сообщениям
    Вы можете скачивать файлы