>

5.6

iTunes

6.1

MVO

5.7

MVO

1

7.4

1 сезон

6.8

iTunes

7.2

1 сезон

13

6.7

1 сезон

8.3

RePack

30

Deluxe

pack

9.9

Лицензия

ВАЖНО

ИГРА 18+

pack

7.3

RePack

MK11

7.7

RePack

jed

7.8

RePack

fifa19

8.5

RePack

RDR2

RePack

NEED FOR SPEED™ PAYBACK

4 сезон

9 сезон

Бесстыжие 9 сезон

Все сериалы

все сериалы на PB.wtf

RePack

FAR CRY 5

Anonymous, добрый вечер, мы катастрофически не успеваем собрать деньги на оплату серверов, помогите нам пожалуйста 5,10,15р., для нас важна любая помощь . В качестве благодарности мы отключим Вам всю рекламу на сайте (укажите свой ник в строку Ваше имя)!

×
  
Magnet ссылка

Матрос сошел на берег (Григорий Аронов, Лев Данилов) [1957, СССР, драма, SATRip от AVP Studio] pb.wtf

Матрос сошел на берег через торрент pb.wtf

Размер: 744 MB | Добавлен: 4 года 5 мес. назад | Торрент скачан:8 раз
Смотреть онлайн Матрос сошел на берег | Скачать    Ребята, помогите собрать деньги на оплату серверов!!!

24-03-2017 08:50 Матрос сошел на берег Скачать торрент  

Матрос сошел на берег
Страна: СССР
Производство: Одесская киностудия

Жанр: драма
Год выпуска: 1957
Продолжительность: 01:09:05

Перевод: Не требуется
Cубтитры: нет
Оригинальная аудиодорожка: русский

Режиссер: Григорий Аронов, Лев Данилов

В ролях:
Иван Дмитриев, Алефтина Константинова, Алексей Бахарь, Степан Крылов, Владимир Гуляев, Александр Антонов, Лилия Гурова, Л. Васина, Артур Нищёнкин, Георгий Домбровский, Вова Гасаненко, Саша Меньщиков...
Об актёрах подробней

Описание:
Матрос Алексей устраивается работать грузчиком в порт, чтобы не оставлять надолго двоих малолетних сыновей, растущих без матери. В порту он знакомится с девушкой Таней. Возникшему чувству предстоит нелегкое испытание.

Источник: DVB
Качество видео: SATRip
Формат видео: AVI

Видео: 688x512 (4:3), 25 fps, XviD ~ 1304 kbps avg, 0.148 bit/pixel
Аудио: 48 kHz, Dolby Digital AC3 2.0, 192 kbps

Раздача от:
Общее
Полное имя : Matros.soshel.na.bereg.1957.SATRip_[New-team]_by_AVP_Studio.avi
Формат : AVI
Формат/Информация : Audio Video Interleave
Размер файла : 744 Мбайт
Продолжительность : 1 ч. 9 м.
Общий поток : 1506 Кбит/сек
Программа кодирования : VirtualDubMod 1.5.10.3 | www.virtualdub-fr.org || (build 2550/release)
Библиотека кодирования : VirtualDubMod build 2550/release

Видео
Идентификатор : 0
Формат : MPEG-4 Visual
Профиль формата : Advanced Simple@L5
Параметр BVOP формата : 1
Параметр QPel формата : Нет
Параметр GMC формата : Без точки перехода
Параметр матрицы формата : Выборочная
Идентификатор кодека : XVID
Идентификатор кодека/Подсказка : XviD
Продолжительность : 1 ч. 9 м.
Битрейт : 1304 Кбит/сек
Ширина : 688 пикселей
Высота : 512 пикселей
Соотношение сторон : 4:3
Частота кадров : 25,000 кадров/сек
Цветовое пространство : YUV
Субдискретизация насыщенности : 4:2:0
Битовая глубина : 8 бит
Тип развёртки : Прогрессивная
Метод сжатия : С потерями
Бит/(Пиксели*Кадры) : 0.148
Размер потока : 644 Мбайт (87%)
Библиотека кодирования : XviD 73

Аудио
Идентификатор : 1
Формат : AC-3
Формат/Информация : Audio Coding 3
Параметр Endianness формата : Big
Идентификатор кодека : 2000
Продолжительность : 1 ч. 9 м.
Вид битрейта : Постоянный
Битрейт : 192 Кбит/сек
Каналы : 2 канала
Расположение каналов : Front: L R
Частота : 48,0 КГц
Частота кадров : 31,250 кадров/сек (1536 spf)
Битовая глубина : 16 бит
Метод сжатия : С потерями
Размер потока : 94,9 Мбайт (13%)
Выравнивание : Разделение по промежуткам
Продолжительность промежутка : 40 мс. (1,00 видеокадр)
Время предзагрузки промежутка : 500 мс
pb.wtf



Скачать Матрос сошел на берег через торрент http://i056.radikal.ru/1703/03/50854c15cd3d.png Скачать, смотреть онлайн Матрос сошел на берег бесплантно в хорошем качестве Описание:Матрос Алексей устраивается работать грузчиком в порт, чтобы не оставлять надолго двоих малолетних сыновей, растущих без матери. В ... 5 10 1
Info! Золотая раздача, скачанное не засчитывается.
Торрент: Зарегистрирован [2017-03-24 08:50] · скачан: 8 раз
Статус: √ проверено
Размер: 744 MB
Как cкачать? Как скачать Матрос сошел на берег через торрент | UTorrent

% Раздел Тема Автор DL S | L
Кино СССР [ 744 MB ] Матрос сошел на берег [1957 СССР SATRip-AVC от AVP Studio] AVP Studio Скачать
1 | 0

28-11-2019 20:33  

Отключить всю рекламу на сайте

    Дорогой пользователь! Огромная просьба, поблагодарите релизера, оцените раздачу и оставьте свои комментарий, если Вы скачали Матрос сошел на берег через торрент бесплатно!
    Комментировать посты могут только пользователи прошедшие не сложную регистрацию
    Показать сообщения:    

    Матрос сошел на берег через торрент
    Скачать бесплатно Матрос сошел на берег
    Матрос сошел на берег скачать торрент
    Матрос сошел на берег смотреть онлайн
    Cкачать фильм Матрос сошел на берег бесплатно
    Матрос сошел на берег скачать торрент в хорошем качестве
    Матрос сошел на берег смотреть онлайн бесплатно в хорошем качестве


    Вы не можете начинать темы
    Вы не можете отвечать на сообщения
    Вы не можете редактировать свои сообщения
    Вы не можете удалять свои сообщения
    Вы не можете голосовать в опросах
    Вы не можете прикреплять файлы к сообщениям
    Вы можете скачивать файлы