Присоединяйтесь к нам в Telegram!, здесь всегда актуальный адрес сайта, оперативная поддержка и многое другое!!

>

5.9

iTunes

7.4

iTunes

9.4

1 сезон

1

7.4

2 сезон

7.2

iTunes

7.3

1 сезон

13

6.1

iTunes

8.3

GOG

30

ULTIMATE

pack

9.9

Лицензия

ВАЖНО

ИГРА 18+

pack

7.3

RePack

MK11

7.7

RePack

jed

7.8

RePack

fifa19

8.5

RePack

RDR2

RePack

NEED FOR SPEED™ PAYBACK

5 сезон

9 сезон

Бесстыжие 9 сезон

Все сериалы

все сериалы на PB.wtf

RePack

FAR CRY 5

Anonymous, доброе утро, мы катастрофически не успеваем собрать деньги на оплату серверов, помогите нам пожалуйста 5,10,15р., для нас важна любая помощь . В качестве благодарности мы отключим Вам всю рекламу на сайте (укажите свой ник в строку Ваше имя)!

×
  
Magnet ссылка

Матрос сошел на берег (Григорий Аронов, Лев Данилов) [1957, СССР, драма, SATRip-AVC от AVP Studio] pb.wtf

Матрос сошел на берег через торрент pb.wtf

Размер: 744 MB | Добавлен: 4 года 8 мес. назад | Торрент скачан:20 раз
Смотреть онлайн Матрос сошел на берег | Скачать    Ребята, помогите собрать деньги на оплату серверов!!!

24-03-2017 08:51 Матрос сошел на берег Скачать торрент  

Матрос сошел на берег
Страна: СССР
Производство: Одесская киностудия

Жанр: драма
Год выпуска: 1957
Продолжительность: 01:09:05

Перевод: Не требуется
Cубтитры: нет
Оригинальная аудиодорожка: русский

Режиссер: Григорий Аронов, Лев Данилов

В ролях:
Иван Дмитриев, Алефтина Константинова, Алексей Бахарь, Степан Крылов, Владимир Гуляев, Александр Антонов, Лилия Гурова, Л. Васина, Артур Нищёнкин, Георгий Домбровский, Вова Гасаненко, Саша Меньщиков...
Об актёрах подробней

Описание:
Матрос Алексей устраивается работать грузчиком в порт, чтобы не оставлять надолго двоих малолетних сыновей, растущих без матери. В порту он знакомится с девушкой Таней. Возникшему чувству предстоит нелегкое испытание.

Источник: DVB
Качество видео: SATRip-AVC
Формат видео: MKV

Видео: 696->760x570 (4:3), 25 fps, H264 ~ 1313 kbps avg, 0.132 bit/pixel
Аудио: 48 kHz, Dolby Digital AC3 2.0, 192 kbps

Раздача от:
Общее
Полное имя : Matros.soshel.na.bereg.1957.SATRip-AVC_[New-team]_by_AVP_Studio.mkv
Формат : Matroska
Версия формата : Version 2
Размер файла : 744 Мбайт
Продолжительность : 1 ч. 9 м.
Общий поток : 1507 Кбит/сек
Дата кодирования : UTC 2017-03-22 16:43:06
Программа кодирования : mkvmerge v6.1.0 ('Old Devil') built on Mar 4 2013 09:10:42
Библиотека кодирования : libebml v1.3.0 + libmatroska v1.4.0

Видео
Идентификатор : 1
Формат : AVC
Формат/Информация : Advanced Video Codec
Профиль формата : High@L4.1
Параметр CABAC формата : Да
Параметр ReFrames формата : 10 кадров
Идентификатор кодека : V_MPEG4/ISO/AVC
Продолжительность : 1 ч. 9 м.
Битрейт : 1313 Кбит/сек
Ширина : 696 пикселей
Высота : 570 пикселей
Соотношение сторон : 4:3
Режим частоты кадров : Постоянный
Частота кадров : 25,000 кадров/сек
Цветовое пространство : YUV
Субдискретизация насыщенности : 4:2:0
Битовая глубина : 8 бит
Тип развёртки : Прогрессивная
Бит/(Пиксели*Кадры) : 0.132
Размер потока : 635 Мбайт (85%)
Библиотека кодирования : x264 core 148 r2597 e86f3a1
Настройки программы : cabac=1 / ref=10 / deblock=1:-2:-1 / analyse=0x3:0x113 / me=umh / subme=10 / psy=1 / psy_rd=1.00:0.00 / mixed_ref=1 / me_range=32 / chroma_me=1 / trellis=2 / 8x8dct=1 / cqm=0 / deadzone=21,11 / fast_pskip=1 / chroma_qp_offset=-2 / threads=6 / lookahead_threads=1 / sliced_threads=0 / nr=0 / decimate=0 / interlaced=0 / bluray_compat=0 / constrained_intra=0 / bframes=8 / b_pyramid=2 / b_adapt=2 / b_bias=0 / direct=3 / weightb=1 / open_gop=0 / weightp=2 / keyint=250 / keyint_min=25 / scenecut=40 / intra_refresh=0 / rc=2pass / mbtree=0 / bitrate=1313 / ratetol=1.0 / qcomp=0.60 / qpmin=0 / qpmax=69 / qpstep=4 / cplxblur=20.0 / qblur=0.5 / ip_ratio=1.40 / pb_ratio=1.30 / aq=1:1.00
Default : Да
Forced : Нет

Аудио
Идентификатор : 2
Формат : AC-3
Формат/Информация : Audio Coding 3
Параметр Endianness формата : Big
Идентификатор кодека : A_AC3
Продолжительность : 1 ч. 9 м.
Вид битрейта : Постоянный
Битрейт : 192 Кбит/сек
Каналы : 2 канала
Расположение каналов : Front: L R
Частота : 48,0 КГц
Частота кадров : 31,250 кадров/сек (1536 spf)
Битовая глубина : 16 бит
Метод сжатия : С потерями
Размер потока : 94,9 Мбайт (13%)
ServiceKind/String : Complete Main
Default : Да
Forced : Нет
pb.wtf



Скачать Матрос сошел на берег через торрент http://i056.radikal.ru/1703/03/50854c15cd3d.png Скачать, смотреть онлайн Матрос сошел на берег бесплантно в хорошем качестве Описание:Матрос Алексей устраивается работать грузчиком в порт, чтобы не оставлять надолго двоих малолетних сыновей, растущих без матери. В ... 10 10 1
Info! Золотая раздача, скачанное не засчитывается.
Торрент: Зарегистрирован [2017-03-24 08:51] · скачан: 20 раз
Статус: √ проверено
Размер: 744 MB
Как cкачать? Как скачать Матрос сошел на берег через торрент | UTorrent

% Раздел Тема Автор DL S | L
Кино СССР [ 744 MB ] Матрос сошел на берег [1957 СССР SATRip от AVP Studio] AVP Studio Скачать
1 | 0

28-11-2019 20:33  

Отключить всю рекламу на сайте

    Дорогой пользователь! Огромная просьба, поблагодарите релизера, оцените раздачу и оставьте свои комментарий, если Вы скачали Матрос сошел на берег через торрент бесплатно!
    Комментировать посты могут только пользователи прошедшие не сложную регистрацию
    Показать сообщения:    

    Матрос сошел на берег через торрент
    Скачать бесплатно Матрос сошел на берег
    Матрос сошел на берег скачать торрент
    Матрос сошел на берег смотреть онлайн
    Cкачать фильм Матрос сошел на берег бесплатно
    Матрос сошел на берег скачать торрент в хорошем качестве
    Матрос сошел на берег смотреть онлайн бесплатно в хорошем качестве


    Вы не можете начинать темы
    Вы не можете отвечать на сообщения
    Вы не можете редактировать свои сообщения
    Вы не можете удалять свои сообщения
    Вы не можете голосовать в опросах
    Вы не можете прикреплять файлы к сообщениям
    Вы можете скачивать файлы