2 сезон

iTunes

MVO

1

2 сезон

iTunes

iTunes

1 сезон

RePack

30

Ultimate

ВАЖНО

ИГРА 18+

pack

RePack

MK11
pack

Легкие деньги

RePack

jed

RePack

fifa19

RePack

RDR2

RePack

NEED FOR SPEED™ PAYBACK

4 сезон

9 сезон

Бесстыжие 9 сезон

Все сериалы

все сериалы на PB.wtf

RePack

FAR CRY 5

Anonymous, добрый вечер, мы не успеваем собрать деньги на оплату серверов за декабрь и январь, помогите нам пожалуйста в это трудное время. В качестве благодарности мы отключим Вам всю рекламу на сайте (укажите свой ник в строку Ваше имя)!

×
  
Magnet ссылка

Долина ям / Valley of Ditches (Кристофер Джеймс Ланг) [2017 г., драма, криминал, ужасы, триллер, WEB-DLRip, Любительский (многоголосый)["Синема УС"]] pb.wtf

Долина ям через торрент pb.wtf

Размер: 1.37 GB | Добавлен: 3 года 10 мес. назад | Торрент скачан:552 раза
Скачать  

24-03-2017 10:09 Долина ям Скачать торрент  

Долина ям / Valley of Ditches
Год выпуска: 2017
Страна: США
Жанр: драма, криминал, ужасы, триллер
Продолжительность: 01:20:48
Перевод: Любительский (многоголосый)["Синема УС"]

Субтитры: нет

Режиссер: Кристофер Джеймс Ланг

rating

В ролях: Аманда Тодиско, Рассел Брэдли Фентон, Джереми Безс, Александрия Бенфорд, Сара Джейн Маццоччи, Эндрю Новелл

Описание: Оставленная на погибель в пустыне Эмилия, пытается выбраться оттуда живой и не потерять свой рассудок.

Доп. информация: реклама есть.

Качество: WEB-DLRip
Формат: AVI
Видео кодек: XviD
Аудио кодек: AC3
Видео: 720x304 , 23.976 fps, XviD build 50 ~1638 kbps
Аудио#1: 48 kHz, AC3 Dolby Digital, 2/0 (L,R) ch, ~384 kbps



General
Complete name : H:\релизы.торрентфайл\Valley.of.Ditches.2017.P.WEB-DLRip.14OOMB_KOSHARA.avi
Format : AVI
Format/Info : Audio Video Interleave
File size : 1.37 GiB
Duration : 1h 20mn
Overall bit rate : 2 422 Kbps
Writing application : VirtualDubMod 1.5.10.2 (build 2540/release)
Writing library : VirtualDubMod build 2540/release

Video
ID : 0
Format : MPEG-4 Visual
Format profile : Advanced Simple@L5
Format settings, BVOP : 2
Format settings, QPel : No
Format settings, GMC : No warppoints
Format settings, Matrix : Custom
Codec ID : XVID
Codec ID/Hint : XviD
Duration : 1h 20mn
Bit rate : 1 640 Kbps
Width : 720 pixels
Height : 304 pixels
Display aspect ratio : 2.35:1
Frame rate : 23.976 fps
Color space : YUV
Chroma subsampling : 4:2:0
Bit depth : 8 bits
Scan type : Progressive
Compression mode : Lossy
Bits/(Pixel*Frame) : 0.312
Stream size : 948 MiB (68%)
Writing library : XviD 1.2.1 (UTC 2008-12-04)

Audio #1
ID : 1
Format : AC-3
Format/Info : Audio Coding 3
Mode extension : CM (complete main)
Format settings, Endianness : Big
Codec ID : 2000
Duration : 1h 20mn
Bit rate mode : Constant
Bit rate : 384 Kbps
Channel(s) : 2 channels
Channel positions : Front: L R
Sampling rate : 48.0 KHz
Bit depth : 16 bits
Compression mode : Lossy
Stream size : 222 MiB (16%)
Alignment : Split accross interleaves
Interleave, duration : 42 ms (1.00 video frame)
Interleave, preload duration : 500 ms

Audio #2
ID : 2
Format : AC-3
Format/Info : Audio Coding 3
Mode extension : CM (complete main)
Format settings, Endianness : Big
Codec ID : 2000
Duration : 1h 20mn
Bit rate mode : Constant
Bit rate : 384 Kbps
Channel(s) : 2 channels
Channel positions : Front: L R
Sampling rate : 48.0 KHz
Bit depth : 16 bits
Compression mode : Lossy
Stream size : 222 MiB (16%)
Alignment : Split accross interleaves
Interleave, duration : 42 ms (1.00 video frame)
Interleave, preload duration : 500 ms

pb.wtf



Скачать Долина ям через торрент http://i90.fastpic.ru/big/2017/0323/5d/c7f59ee42e12ab5dc2f1ea7c0e9f055d.jpg Скачать фильм Долина ям через торрент бесплантно в хорошем качестве Описание: Оставленная на погибель в пустыне Эмилия, пытается выбраться оттуда живой и не потерять свой рассудок.Доп. информация: реклама ... 9.5 10 14
Торрент: Зарегистрирован [2017-03-24 10:09] · скачан: 552 раз
Статус: T временная
Размер: 1.37 GB
Как cкачать? Как скачать Долина ям через торрент | UTorrent

28-11-2019 20:33  

Отключить всю рекламу на сайте

24-03-2017 11:45 Долина ям Скачать торрент  

Я по названию было подумал что фильм про Россию....pb.wtf



24-03-2017 12:30 Долина ям Скачать торрент  

MaxPadonak писал(а):

Я по названию было подумал что фильм про Россию....

та ты еще по украинским дорогам не ездил на 10 кв.м ям - 1 кв.м асфальта.pb.wtf



24-03-2017 13:21 Долина ям Скачать торрент  

росийские хуже на порядокpb.wtf



24-03-2017 17:08 Долина ям Скачать торрент  

spellscape писал(а):

росийские хуже на порядок

не свисти,кастрюля.pb.wtf



24-03-2017 18:14 Долина ям Скачать торрент  

vidadiy писал(а):

spellscape писал(а):

росийские хуже на порядок

не свисти,кастрюля.

Конечно - конечно, в России самые лучшие дороги! И ямы самые классные водители самые - самые вежливые. И уроды самые - самые... Но причем тут кастрюля?pb.wtf



25-03-2017 16:45 Долина ям Скачать торрент  

дороги обсудили. фильм как?pb.wtf



31-03-2017 12:51 Долина ям Скачать торрент  

фильм бредятина, достоин своего рейтинга.pb.wtf



    Дорогой пользователь! Огромная просьба, поблагодарите релизера, оцените раздачу и оставьте свои комментарий, если Вы скачали Долина ям через торрент бесплатно! Внесите свою лепту в развитие PiratBit!
    Комментировать посты могут только пользователи прошедшие не сложную регистрацию
    Показать сообщения:    

    Долина ям через торрент
    Скачать бесплатно Долина ям
    Долина ям скачать торрент
    Долина ям смотреть онлайн
    Cкачать фильм Долина ям бесплатно
    Долина ям скачать торрент в хорошем качестве
    Долина ям смотреть онлайн бесплатно в хорошем качестве


    Вы не можете начинать темы
    Вы не можете отвечать на сообщения
    Вы не можете редактировать свои сообщения
    Вы не можете удалять свои сообщения
    Вы не можете голосовать в опросах
    Вы не можете прикреплять файлы к сообщениям
    Вы можете скачивать файлы