Ссылка на приватное зеркало всего за 1$. Внимание количество ограничено!!!

OK

1+1

iTunes

мы

OK

1

WEB-DLRip

Джокер

Пифагор

Ведьмак / The Witcher сериал

iTunes

ПШазам

ОК

Оно 2

iTunes

30
pack

Вам бонус

ВАЖНО

!!Акция!!

Alien_RageХит недели

RePack

Resident Evil 21

ИГРА 18+

pack

RePack

jed

RePack

fifa19

RePack

Assassins Creed: Odyssey

RePack

NEED FOR SPEED™ PAYBACK

4 сезон

9 сезон

Бесстыжие 9 сезон

Все сериалы

все сериалы на PB.wtf

RePack

FAR CRY 5
  

Во все тяжкие / Breaking Bad: The Movie (Мишель МакЛарен, Адам Бернштейн, Винс Гиллиган) [2017, Триллер, Драма, Криминал, WEB-DLRip 720p] MVO [Синема УС] pb.wtf

Во все тяжкие через торрент pb.wtf

Размер: 4.02 GB | Добавлен: 2 года 10 мес. назад | Торрент скачан:717 раз
Скачать  

24-03-2017 11:27 Во все тяжкие Скачать торрент  

Во все тяжкие / Breaking Bad: The MovieГод выпуска: 2017
Страна: США
Жанр: Триллер, Драма, Криминал
Продолжительность: 02:08:02
Перевод: Любительский (многоголосый) - [Синема УС]
Субтитры: отсутствуют

Режиссер: Мишель МакЛарен, Адам Бернштейн, Винс Гиллиган

rating

В ролях:

Брайан Крэнстон, Анна Ганн, Аарон Пол, Дин Норрис, Бетси Брандт, АрДжей Митти, Боб Оденкёрк, Джанкарло Эспозито, Джонатан Бэнкс, Стивен Майкл Квезада

Описание:

Фанаты культового сериала "Во все тяжкие" превратили его в полнометражный двухчасовой фильм. "Это не фанатское кино, а скорее полное переосмысление самого сериала в полнометражном режиме". Чтобы создать полнометражный фильм на основе 62 серий, им понадобилось более двух лет.
Школьный учитель химии Уолтер Уайт узнаёт, что болен раком лёгких. Учитывая сложное финансовое состояние дел семьи, а также перспективы, Уолтер решает заняться изготовлением метамфетамина. Для этого он привлекает своего бывшего ученика Джесси Пинкмана, когда-то исключённого из школы при активном содействии Уайта. Пинкман сам занимался «варкой мета», но накануне, в ходе рейда УБН, он лишился подельника и лаборатории...

Качество: WEB-DLRip 720p
Формат: MKV
Видео кодек: H.264
Аудио кодек: AC3

Видео: 1280х544p (2,35:1), 25,000 кадров/сек, H.264 AVC, High@L3.1 ~ 4019 Кбит/сек, 0.231 bit/pixel
Аудио#1: AC-3, 48.0 KHz, 2 ch, 384 Kbps

скриншот   скриншот   скриншот   скриншот   скриншот  





Общее
Уникальный идентификатор : 226594685703201554629243548699759627478 (0xAA788C8E1D130B63B62B8AD456A24CD6)
Полное имя : D:\torrent\Breaking.Bad.The.Movie.2017.P.WEB-DLRip.720p.epidemz.in.mkv
Формат : Matroska
Версия формата : Version 2
Размер файла : 4,02 Гбайт
Продолжительность : 2 ч. 8 м.
Режим общего битрейта : Переменный
Общий поток : 4492 Кбит/сек
Дата кодирования : UTC 2017-03-21 17:38:57
Программа кодирования : mkvmerge v8.3.0 ('Over the Horizon') 64bit
Библиотека кодирования : libebml v1.3.1 + libmatroska v1.4.2
DURATION : 02:08:02.528000000
NUMBER_OF_FRAMES : 240079
NUMBER_OF_BYTES : 368761344
_STATISTICS_WRITING_APP : mkvmerge v8.3.0 ('Over the Horizon') 64bit
_STATISTICS_WRITING_DATE_UTC : 2017-03-21 17:38:57
_STATISTICS_TAGS : BPS DURATION NUMBER_OF_FRAMES NUMBER_OF_BYTES

Видео
Идентификатор : 1
Формат : AVC
Формат/Информация : Advanced Video Codec
Профиль формата : High@L3.1
Параметр CABAC формата : Да
Параметр ReFrames формата : 6 кадров
Идентификатор кодека : V_MPEG4/ISO/AVC
Продолжительность : 2 ч. 8 м.
Вид битрейта : Переменный
Битрейт : 4019 Кбит/сек
Максимальный битрейт : 4500 Кбит/сек
Ширина : 1280 пикселей
Высота : 544 пикселя
Соотношение сторон : 2,35:1
Режим частоты кадров : Постоянный
Частота кадров : 25,000 кадров/сек
Стандарт вещания : Component
Цветовое пространство : YUV
Субдискретизация насыщенности : 4:2:0
Битовая глубина : 8 бит
Тип развёртки : Прогрессивная
Бит/(Пиксели*Кадры) : 0.231
Размер потока : 3,59 Гбайт (89%)
Default : Да
Forced : Нет
Color range : Limited
Основные цвета : BT.709
Характеристики трансфера : BT.709
Коэффициенты матрицы : BT.709

Аудио
Идентификатор : 2
Формат : AC-3
Формат/Информация : Audio Coding 3
Расширение режима : CM (complete main)
Параметр Endianness формата : Big
Идентификатор кодека : A_AC3
Продолжительность : 2 ч. 8 м.
Вид битрейта : Постоянный
Битрейт : 384 Кбит/сек
Каналы : 2 канала
Расположение каналов : Front: L R
Частота : 48,0 КГц
Метод сжатия : С потерями
Размер потока : 352 Мбайт (9%)
Default : Да
Forced : Нет

pb.wtf



Скачать Во все тяжкие через торрент http://s019.radikal.ru/i620/1703/7b/0b63d7d0753b.jpg Скачать фильм Во все тяжкие через торрент бесплантно в хорошем качестве Описание: Фанаты культового сериала "Во все тяжкие" превратили его в полнометражный двухчасовой фильм. "Это не фанатское кино, а скорее ... 9.4 10 19
Торрент: Зарегистрирован [2017-03-24 11:27] · скачан: 717 раз
Статус: T временная
Размер: 4.02 GB
Как cкачать? Как скачать Во все тяжкие через торрент | qTorrent

% Раздел Тема Автор DL S | L
T Фильмы 2017 [DVDrip, WEB-DLRip, HDrip] (DUB, MVO) [ 1.37 GB ] Во все тяжкие / Breaking Bad: The Movie [2017 WEB-DLRip Любительский ["Синема УС"] ] oleg8 Скачать
1 | 0


Последний раз редактировалось: bober100 (2017-03-24 16:07), всего редактировалось 5 раз(а)

28-11-2019 20:33  

Отключить всю рекламу на сайте

24-03-2017 15:21 Во все тяжкие Скачать торрент  

Это здесь лучшие моменты сериала посклеивали? Что-то недоганяю..pb.wtf



24-03-2017 15:54 Во все тяжкие Скачать торрент  

походу так и есть,шедевр данного сериала не передать за два часаpb.wtf



24-03-2017 19:48 Во все тяжкие Скачать торрент  

Стоит смотреть, если сериал вообще не видел, а времени смотреть 62 серии нет?pb.wtf



24-03-2017 21:45 Во все тяжкие Скачать торрент  

NIKLAINER писал(а):

Стоит смотреть, если сериал вообще не видел, а времени смотреть 62 серии нет?

смотри сериал однозначно он супер за 2 часа ты не поймешь и не увидишь всего что там происходило. сериалу по 10ти бальной школе ставлю 100+ pb.wtf



24-03-2017 22:35 Во все тяжкие Скачать торрент  

knap63 писал(а):

NIKLAINER писал(а):

Стоит смотреть, если сериал вообще не видел, а времени смотреть 62 серии нет?

смотри сериал однозначно он супер за 2 часа ты не поймешь и не увидишь всего что там происходило. сериалу по 10ти бальной школе ставлю 100+

согласен, это скорее напоминает 2 часовой трейлер к отличному сериалу, который оправдывает все потраченное на него время, что есть большая редкость. И концовка нормальная, что еще большая редкость. А вот "звоните Солу" пока не могу осилить, может чуть позже.pb.wtf



25-03-2017 05:01 Во все тяжкие Скачать торрент  

в лучшем переводе будет ?pb.wtf



25-03-2017 08:25 Во все тяжкие Скачать торрент  

На ImDb оценка 7.5, 9.5 оценка сериала.
ratingpb.wtf



06-10-2017 14:43 Во все тяжкие Скачать торрент  

Ребят, сериал посмотрите, он супер. а это выдержка из него. вообще чушь.pb.wtf



    Дорогой пользователь! Огромная просьба, поблагодарите релизера, оцените раздачу и оставьте свои комментарий, если Вы скачали Во все тяжкие через торрент бесплатно! Внесите свою лепту в развитие PiratBit!
    Комментировать посты могут только пользователи прошедшие не сложную регистрацию
    Показать сообщения:    

    Во все тяжкие через торрент
    Скачать бесплатно Во все тяжкие
    Во все тяжкие скачать торрент
    Во все тяжкие смотреть онлайн
    Cкачать фильм Во все тяжкие бесплатно
    Во все тяжкие скачать торрент в хорошем качестве
    Во все тяжкие смотреть онлайн бесплатно в хорошем качестве


    Вы не можете начинать темы
    Вы не можете отвечать на сообщения
    Вы не можете редактировать свои сообщения
    Вы не можете удалять свои сообщения
    Вы не можете голосовать в опросах
    Вы не можете прикреплять файлы к сообщениям
    Вы можете скачивать файлы