2 сезон

iTunes

1 сезон

1

iTunes

iTunes

iTunes

1 сезон

RePack

30

ИГРА 18+

pack

ВАЖНО

!!Акция!!

Alien_RageХит недели

RePack

MK11
pack

Забери бонус

RePack

jed

!!Акция!!

Alien_Rage

RePack

fifa19

RePack

Assassins Creed: Odyssey

RePack

NEED FOR SPEED™ PAYBACK

4 сезон

9 сезон

Бесстыжие 9 сезон

Все сериалы

все сериалы на PB.wtf

RePack

FAR CRY 5
  

Союзники / Allied (Роберт Земекис) [2016, боевик, триллер, драма, BDRip 1080p] Дубляж - [Лицензия] pb.wtf

Союзники через торрент pb.wtf

Раздают: 3 [ 345 KB/s ]
Размер: 7.74 GB | Добавлен: 3 года 7 мес. назад | Торрент скачан:689 раз
Скачать  

24-03-2017 14:38 Союзники Скачать торрент  

Союзники / Allied

Год выпуска: 2016
Страна: Великобритания, США
Жанр: боевик, триллер, драма, мелодрама, военный

Продолжительность: 02:04:35
Перевод: Дубляж - [Лицензия]
Субтитры: || русские (форс. и полные) || английские (форс. и полные) ||
Режиссер: Роберт Земекис
В ролях:

Брэд Питт (Max Vatan), Марион Котийяр (Marianne Beauséjour), Лиззи Каплан (Bridget Vatan), Аугуст Диль (Hobar), Шарлотта Хоуп (Louise), Рэффи Кэссиди (Anna), Мэттью Гуд (Guy Sangster), Дэниэл Беттс (George Kavanagh), Саймон МакБерни (S.O.E. Official), Джаред Харрис (Frank Heslop), Тьерри Фремон (Paul Delamare), Энтон Лессер (Emmanuel Lombard)
Описание:
1942 год. Во время опасной миссии в Северной Африке разведчик Макс встречает участницу сопротивления Марианну. Их чувствам суждено подвергнуться тысяче испытаний, главным из которых станет испытание правдой.
Рейтинг:

MPAA: R - Лицам до 17 лет обязательно присутствие взрослого
Качество: BDRip 1080p
Формат: MKV
Видео: AVC, 1920x800 (2.40:1), 7629 kbps, 23,976 fps, 0,207 bpp
Аудио №1: русский / AC3 / 5.1 / 48 kHz / 640 kbps / |Дубляж, Лицензия|
Аудио №2: английский / AC3 / 5.1 / 48 kHz / 640 kbps /
Навигация по главам: есть
Релиз от:
General
Unique ID : 208015759212826430339728299182908604932 (0x9C7E60C1CE4CE065BACD9FC57BA58204)
Complete name : E:\Allied.(2016).BDRip.1080p.(qqss44).mkv
Format : Matroska
Format version : Version 2
File size : 7.74 GiB
Duration : 2 h 4 min
Overall bit rate : 8 894 kb/s
Movie name : Allied.(2016).BDRip.1080p.(qqss44)
Encoded date : UTC 2017-03-24 13:07:48
Writing application : mkvmerge v5.8.0 ('No Sleep / Pillow') built on Sep 2 2012 15:37:04
Writing library : libebml v1.2.3 + libmatroska v1.3.0

Video
ID : 1
Format : AVC
Format/Info : Advanced Video Codec
Format profile : High@L4.1
Format settings, CABAC : Yes
Format settings, ReFrames : 5 frames
Codec ID : V_MPEG4/ISO/AVC
Duration : 2 h 4 min
Bit rate : 7 629 kb/s
Width : 1 920 pixels
Height : 800 pixels
Display aspect ratio : 2.40:1
Frame rate mode : Constant
Frame rate : 23.976 (24000/1001) FPS
Color space : YUV
Chroma subsampling : 4:2:0
Bit depth : 8 bits
Scan type : Progressive
Bits/(Pixel*Frame) : 0.207
Stream size : 6.47 GiB (84%)
Writing library : x264 core 148 r2744kMod b97ae06
Encoding settings : cabac=1 / ref=5 / deblock=1:-3:-3 / analyse=0x3:0x133 / me=umh / subme=11 / psy=1 / fade_compensate=0.00 / psy_rd=1.00:0.00 / mixed_ref=1 / me_range=32 / chroma_me=1 / trellis=2 / 8x8dct=1 / cqm=0 / deadzone=21,11 / fast_pskip=0 / chroma_qp_offset=-2 / threads=12 / lookahead_threads=2 / sliced_threads=0 / nr=0 / decimate=0 / interlaced=0 / bluray_compat=0 / constrained_intra=0 / bframes=9 / b_pyramid=2 / b_adapt=2 / b_bias=0 / direct=3 / weightb=1 / open_gop=0 / weightp=2 / keyint=240 / keyint_min=23 / scenecut=40 / intra_refresh=0 / rc=2pass / mbtree=0 / bitrate=7629 / ratetol=1.0 / qcomp=0.66 / qpmin=0 / qpmax=69 / qpstep=4 / cplxblur=20.0 / qblur=0.5 / ip_ratio=1.40 / pb_ratio=1.30 / aq=3:0.80
Language : English
Default : Yes
Forced : No

Audio #1
ID : 2
Format : AC-3
Format/Info : Audio Coding 3
Mode extension : CM (complete main)
Format settings, Endianness : Big
Codec ID : A_AC3
Duration : 2 h 4 min
Bit rate mode : Constant
Bit rate : 640 kb/s
Channel(s) : 6 channels
Channel positions : Front: L C R, Side: L R, LFE
Sampling rate : 48.0 kHz
Frame rate : 31.250 FPS (1536 spf)
Compression mode : Lossy
Stream size : 570 MiB (7%)
Title : DUB | DD5.1 @ 640 kbps
Language : Russian
Default : Yes
Forced : No

Audio #2
ID : 3
Format : AC-3
Format/Info : Audio Coding 3
Mode extension : CM (complete main)
Format settings, Endianness : Big
Codec ID : A_AC3
Duration : 2 h 4 min
Bit rate mode : Constant
Bit rate : 640 kb/s
Channel(s) : 6 channels
Channel positions : Front: L C R, Side: L R, LFE
Sampling rate : 48.0 kHz
Frame rate : 31.250 FPS (1536 spf)
Compression mode : Lossy
Stream size : 570 MiB (7%)
Title : Original | DD5.1 @ 640 kbps
Language : English
Default : No
Forced : No

Text #1
ID : 4
Format : UTF-8
Codec ID : S_TEXT/UTF8
Codec ID/Info : UTF-8 Plain Text
Title : FORCED
Language : Russian
Default : Yes
Forced : No

Text #2
ID : 5
Format : UTF-8
Codec ID : S_TEXT/UTF8
Codec ID/Info : UTF-8 Plain Text
Title : FULL
Language : Russian
Default : No
Forced : No

Text #3
ID : 6
Format : UTF-8
Codec ID : S_TEXT/UTF8
Codec ID/Info : UTF-8 Plain Text
Title : FORCED
Language : English
Default : No
Forced : No

Text #4
ID : 7
Format : UTF-8
Codec ID : S_TEXT/UTF8
Codec ID/Info : UTF-8 Plain Text
Title : FULL
Language : English
Default : No
Forced : No

Menu
00:00:00.000 : en:00:00:00.000
00:05:38.086 : en:00:05:38.086
00:16:39.748 : en:00:16:39.748
00:24:31.428 : en:00:24:31.428
00:33:52.279 : en:00:33:52.279
00:43:07.543 : en:00:43:07.543
00:49:14.117 : en:00:49:14.117
01:01:39.320 : en:01:01:39.320
01:09:36.337 : en:01:09:36.337
01:16:44.015 : en:01:16:44.015
01:26:14.961 : en:01:26:14.961
01:31:53.466 : en:01:31:53.466
01:40:12.171 : en:01:40:12.171
01:47:25.104 : en:01:47:25.104
01:56:35.613 : en:01:56:35.613
pb.wtf



Скачать Союзники через торрент http://i6.imageban.ru/out/2017/03/24/d7cc2e29e763d494e23f765bb393c46b.png Скачать фильм Союзники через торрент бесплантно в хорошем качестве Описание: 1942 год. Во время опасной миссии в Северной Африке разведчик Макс встречает участницу сопротивления Марианну. Их чувствам ... 9.9 10 10
Info! Золотая раздача, скачанное не засчитывается.
Торрент: Зарегистрирован [2017-03-24 14:38] · скачан: 689 раз
Статус: √ проверено
Размер: 7.74 GB
Как cкачать? Как скачать Союзники через торрент | qTorrent

% Раздел Тема Автор DL S | L
Ultra HD (UHD: 2K, 4K, 8K) — видео сверхвысокой чёткости [ 21.22 GB ] Союзники / Allied [2016 UHD BDRip 2160p SDR] DUB + 2xAVO sheker187 Скачать
1 | 0
Ultra HD (UHD: 2K, 4K, 8K) — видео сверхвысокой чёткости [ 61.26 GB ] Союзники / Allied [2016 военный UHD BDRemux 2160p] DUB [] bober100 Скачать
1 | 0
Фильмы (Blu-ray, BD-Remux, HDDVD) [ 34.92 GB ] Союзники / Allied [2016 военный BD Remux 1080p] [] 2xDUB+2xAVO bober100 Скачать
1 | 0
Фильмы 2016 [DVDrip, WEB-DLRip, HDrip] (DUB, MVO) [ 2.2 GB ] Союзники / Allied [2016 военный BDRip-AVC] DUB [] от ExKinoRay Enigma2010 Скачать
1 | 0
Ultra HD (UHD: 2K, 4K, 8K) — видео сверхвысокой чёткости [ 23.57 GB ] Союзники / Allied [2016 военный UHD WEBRip 2160p] [USA Transfer] 2xDUB [] bober100 Скачать
1 | 0
Фильмы 2016 [DVDrip, WEB-DLRip, HDrip] (DUB, MVO) [ 2.18 GB ] Союзники / Allied [2016 военный BDRip] - [] Twi7ter Скачать
2 | 0
Фильмы 2016 [DVDrip, WEB-DLRip, HDrip] (DUB, MVO) [ 1.46 GB ] Союзники / Allied [2016 военный BDRip] - [] Twi7ter Скачать
1 | 0

28-11-2019 20:33  

Отключить всю рекламу на сайте

25-03-2017 04:53 Союзники Скачать торрент  

Релизеру "спасибку" кинул ;).pb.wtf





Последний раз редактировалось: mihey52 (2017-03-28 18:12), всего редактировалось 1 раз

27-03-2017 18:18 Союзники Скачать торрент  

Не будучи любителем сериалов и чтения, считаю фильм весьма достойным, благодаря режиссеру и гранд паре. При этом согласен, что редко постановы бывают лучше или равными по уровню книгам. Пусть я и не понял о чем произведение Кинга в деталях, но просмотр удовольствие доставил, за что и спс авторам.pb.wtf



    Дорогой пользователь! Огромная просьба, поблагодарите релизера, оцените раздачу и оставьте свои комментарий, если Вы скачали Союзники через торрент бесплатно! Внесите свою лепту в развитие PiratBit!
    Комментировать посты могут только пользователи прошедшие не сложную регистрацию
    Показать сообщения:    

    Союзники через торрент
    Скачать бесплатно Союзники
    Союзники скачать торрент
    Союзники смотреть онлайн
    Cкачать фильм Союзники бесплатно
    Союзники скачать торрент в хорошем качестве
    Союзники смотреть онлайн бесплатно в хорошем качестве


    Вы не можете начинать темы
    Вы не можете отвечать на сообщения
    Вы не можете редактировать свои сообщения
    Вы не можете удалять свои сообщения
    Вы не можете голосовать в опросах
    Вы не можете прикреплять файлы к сообщениям
    Вы можете скачивать файлы