Всегда рабочее зеркало без VPN и Proxy просто перед .vidak.icu напиши любое слово или цифру, Пример http://dvv6.vidak.icu

MVO

2 сезон

1 сезон

1

1 сезон

iTunes

2 сезон

13

1 сезон

Deluxe

pack

Рекомендуем

Пиратка

30

ВАЖНО

RePack

MK11

RePack

jed

RePack

fifa19

RePack

RDR2

RePack

NEED FOR SPEED™ PAYBACK

Кинопоиск HD

6 сезон

 Острые козырьки 6 сезон

Все сериалы

все сериалы на PB.wtf

RePack

FAR CRY 5

Anonymous, нам критически не хватает 5601 руб. на оплату серверов и переферии за Апрель, помоги нам пожалуйста, вся надежда только на тебя. В благодарность мы отключим тебе всю рекламу на сайте!

×
  
Magnet ссылка

Хорошие вибрации / Good Vibrations (Лиза Баррос Д’Са, Глен Лейберн) [2012, драма, биография, музыка, BDRip 1080p by msltel] AVO pb.wtf

Хорошие вибрации через торрент pb.wtf

Размер: 7.54 GB | Добавлен: 5 лет 1 мес. назад | Торрент скачан:5 раз
Смотреть онлайн Хорошие вибрации | Скачать    Ребята, помогите собрать деньги на оплату серверов!!!

25-03-2017 07:21 Хорошие вибрации Скачать торрент  

Название: Хорошие вибрации
Оригинальное название: Good Vibrations
Год выпуска: 2012
Страна: Великобритания, Ирландия
Жанр: драма, биография, музыка
Продолжительность: 01:42:45
Перевод: авторский

Режиссёр: Лиза Баррос Д’Са, Глен Лейберн

В ролях: Лиам Каннингэм, Джоди Уиттакер, Дилан Моран, Дэвид Уилмот, Эндрю Симпсон, Карл Джонсон, Марк Райдер, Ричард Дормер, Киллиан Скотт, Ниал Райт

Описание: Ирландия. Белфаст. 70-е годы. Терри Хоули — меломан и ожесточенный бунтарь. Он жил спокойно в родном городе, пока тот не стал захлебываться в конфликте Северной Ирландии. Когда все друзья Терри берутся за оружие, он открывает музыкальную лавку Good Vibrations. И не где-нибудь, а в самом сердце конфликта, в самой горячей точке Ирландии. Именно здесь он улавливает вибрации сопротивления, поступающие от молодой панк-тусовки. Более того, Терри становится лидером пёстрой группировки, призванной создать новую общину, альтернативный Ольстер, которая бы вернула к жизни измученный город...



Качество: BDRip 1080p
Формат: MKV
Видео: MPEG-4 AVC, 8220 Кбит/с, 1920x816, 23,976 кадра/с
Аудио 1: русский, DTS, 1509 kbps, 6 ch, 48 kHz [авторский, Михаил Яроцкий, с ненормативной лексикой]
Аудио 2: английский, DTS, 768 kbps, 6 ch, 48 kHz [оригинал]
Субтитры 1: русские (песни)
Субтитры 2: английские (для слабослышащих)
Имеются неименованные главы/чаптеры.
Общее
Уникальный идентификатор : 183834608971041570865814701167121284675 (0x8A4D4200B3987BB4B948366E2A803E43)
Полное имя : D:\Video\Хорошие вибрации.2012.BDRip.1080p by msltel.mkv
Формат : Matroska
Версия формата : Version 4 / Version 2
Размер файла : 7,54 Гбайт
Продолжительность : 1 ч. 42 м.
Общий поток : 10,5 Мбит/сек
Название фильма : Rip by msltel
Дата кодирования : UTC 2017-03-25 03:26:06
Программа кодирования : mkvmerge v8.2.0 ('World of Adventure') 64bit
Библиотека кодирования : libebml v1.3.1 + libmatroska v1.4.2

Видео
Идентификатор : 1
Формат : AVC
Формат/Информация : Advanced Video Codec
Профиль формата : High@L4.1
Параметр CABAC формата : Да
Параметр ReFrames формата : 4 кадра
Идентификатор кодека : V_MPEG4/ISO/AVC
Продолжительность : 1 ч. 42 м.
Битрейт : 8220 Кбит/сек
Ширина : 1920 пикселей
Высота : 816 пикселей
Соотношение сторон : 2,35:1
Режим частоты кадров : Постоянный
Частота кадров : 23,976 (24000/1001) кадра/сек
Цветовое пространство : YUV
Субдискретизация насыщенности : 4:2:0
Битовая глубина : 8 бит
Тип развёртки : Прогрессивная
Бит/(Пиксели*Кадры) : 0.219
Размер потока : 5,90 Гбайт (78%)
Библиотека кодирования : x264 core 146 r2538 121396c
Настройки программы : cabac=1 / ref=4 / deblock=1:-3:-2 / analyse=0x3:0x113 / me=umh / subme=11 / psy=1 / psy_rd=1.00:0.15 / mixed_ref=1 / me_range=32 / chroma_me=1 / trellis=2 / 8x8dct=1 / cqm=0 / deadzone=21,11 / fast_pskip=0 / chroma_qp_offset=-3 / threads=6 / lookahead_threads=1 / sliced_threads=0 / nr=0 / decimate=1 / interlaced=0 / bluray_compat=0 / constrained_intra=0 / bframes=7 / b_pyramid=2 / b_adapt=2 / b_bias=0 / direct=1 / weightb=1 / open_gop=0 / weightp=2 / keyint=230 / keyint_min=23 / scenecut=40 / intra_refresh=0 / rc_lookahead=40 / rc=crf / mbtree=0 / crf=17.0 / qcomp=0.60 / qpmin=0 / qpmax=69 / qpstep=4 / vbv_maxrate=62500 / vbv_bufsize=78125 / crf_max=0.0 / nal_hrd=none / filler=0 / ip_ratio=1.40 / pb_ratio=1.30 / aq=1:1.00
Язык : English
Default : Да
Forced : Нет

Аудио #1
Идентификатор : 2
Формат : DTS
Формат/Информация : Digital Theater Systems
Режим : 16
Параметр Endianness формата : Big
Идентификатор кодека : A_DTS
Продолжительность : 1 ч. 42 м.
Вид битрейта : Постоянный
Битрейт : 1509 Кбит/сек
Каналы : 6 каналов
Расположение каналов : Front: L C R, Side: L R, LFE
Частота : 48,0 КГц
Частота кадров : 93,750 кадра/сек (512 spf)
Битовая глубина : 24 бит
Метод сжатия : С потерями
Размер потока : 1,08 Гбайт (14%)
Заголовок : AVO (Михаил Яроцкий, с ненормативной лексикой)
Язык : Russian
Default : Да
Forced : Нет

Аудио #2
Идентификатор : 3
Формат : DTS
Формат/Информация : Digital Theater Systems
Режим : 16
Параметр Endianness формата : Big
Идентификатор кодека : A_DTS
Продолжительность : 1 ч. 42 м.
Вид битрейта : Постоянный
Битрейт : 768 Кбит/сек
Каналы : 6 каналов
Расположение каналов : Front: L C R, Side: L R, LFE
Частота : 48,0 КГц
Частота кадров : 93,750 кадра/сек (512 spf)
Битовая глубина : 24 бит
Метод сжатия : С потерями
Размер потока : 564 Мбайт (7%)
Заголовок : original
Язык : English
Default : Нет
Forced : Нет

Текст #1
Идентификатор : 4
Формат : UTF-8
Идентификатор кодека : S_TEXT/UTF8
Идентификатор кодека/Информация : UTF-8 Plain Text
Продолжительность : 1 ч. 33 м.
Битрейт : 9 бит/сек
ElementCount : 127
Размер потока : 6,53 Кбайт (0%)
Заголовок : русские (песни)
Язык : Russian
Default : Да
Forced : Да

Текст #2
Идентификатор : 5
Формат : UTF-8
Идентификатор кодека : S_TEXT/UTF8
Идентификатор кодека/Информация : UTF-8 Plain Text
Продолжительность : 1 ч. 35 м.
Битрейт : 59 бит/сек
ElementCount : 1214
Размер потока : 41,5 Кбайт (0%)
Заголовок : английские (для слабослышащих)
Язык : English
Default : Нет
Forced : Нет

Меню
00:00:00.000 : en:Chapter 01
00:07:51.053 : en:Chapter 02
00:15:35.601 : en:Chapter 03
00:23:43.296 : en:Chapter 04
00:31:56.205 : en:Chapter 05
00:40:38.144 : en:Chapter 06
00:49:13.450 : en:Chapter 07
00:55:27.407 : en:Chapter 08
01:04:55.683 : en:Chapter 09
01:14:10.070 : en:Chapter 10
01:20:39.835 : en:Chapter 11
01:26:30.101 : en:Chapter 12
pb.wtf



Скачать Хорошие вибрации через торрент http://hostpic.gq/img/2017-03/24/mtc9jw9esjis5t26tineyiay5.jpg Скачать, смотреть онлайн Хорошие вибрации бесплантно в хорошем качестве Описание: Ирландия. Белфаст. 70-е годы. Терри Хоули — меломан и ожесточенный бунтарь. Он жил спокойно в родном городе, пока тот не стал ... 7.5 10 2
Info! Золотая раздача, скачанное не засчитывается.
Торрент: Зарегистрирован [2017-03-25 07:21] · скачан: 5 раз
Статус: √ проверено
Размер: 7.54 GB
Как cкачать? Как скачать Хорошие вибрации через торрент | UTorrent

% Раздел Тема Автор DL S | L
Фильмы с авторской озвучкой [ 2.93 GB ] Хорошие вибрации / Good Vibrations [2012 биография музыка BDRip 720p by msltel] AVO msltel Скачать
1 | 0

28-11-2019 20:33  

Отключить всю рекламу на сайте

    Дорогой пользователь! Огромная просьба, поблагодарите релизера, оцените раздачу и оставьте свои комментарий, если Вы скачали Хорошие вибрации через торрент бесплатно!
    Комментировать посты могут только пользователи прошедшие не сложную регистрацию
    Показать сообщения:    

    Хорошие вибрации через торрент
    Скачать бесплатно Хорошие вибрации
    Хорошие вибрации скачать торрент
    Хорошие вибрации смотреть онлайн
    Cкачать фильм Хорошие вибрации бесплатно
    Хорошие вибрации скачать торрент в хорошем качестве
    Хорошие вибрации смотреть онлайн бесплатно в хорошем качестве


    Вы не можете начинать темы
    Вы не можете отвечать на сообщения
    Вы не можете редактировать свои сообщения
    Вы не можете удалять свои сообщения
    Вы не можете голосовать в опросах
    Вы не можете прикреплять файлы к сообщениям
    Вы можете скачивать файлы