2 сезон

iTunes

1 сезон

1

iTunes

iTunes

iTunes

1 сезон

RePack

30

ИГРА 18+

pack

ВАЖНО

!!Акция!!

Alien_RageХит недели

RePack

MK11
pack

Забери бонус

RePack

jed

!!Акция!!

Alien_Rage

RePack

fifa19

RePack

Assassins Creed: Odyssey

RePack

NEED FOR SPEED™ PAYBACK

4 сезон

9 сезон

Бесстыжие 9 сезон

Все сериалы

все сериалы на PB.wtf

RePack

FAR CRY 5
  

Похороны / The Funeral (Абель Феррара) [1996, драма, криминал, BDRip 720p by msltel] MVO, AVO pb.wtf

Похороны через торрент pb.wtf

Размер: 4.2 GB | Добавлен: 3 года 7 мес. назад | Торрент скачан:76 раз
Скачать  

25-03-2017 08:06 Похороны Скачать торрент  

Название: Похороны
Оригинальное название: The Funeral
Год выпуска: 1996
Страна: США
Жанр: драма, криминал
Продолжительность: 01:35:10
Перевод: профессиональный многоголосый, авторский

Режиссёр: Абель Феррара

В ролях: Кристофер Уокен, Крис Пенн, Аннабелла Шиорра, Изабелла Росселлини, Винсент Галло, Бенисио Дель Торо, Гретхен Мол, Джон Вентимилья, Пол Хипп, Виктор Арго, Джан ДиДонна, Дмитрий Праченко, Пол Перри, Грегори Перрелли, Джои Хэннон, Роберт Миано, Фрэнк Джон Хьюз, Эндрю Фисцелла, Энтони Алессандро, Дэниэл Скарпа, Иди Фалко

Описание: После убийства Джонни Темпио два его брата, Рэй и Чез, по законам семьи, обязаны отомстить за его смерть. С упорством, свойственным итальянским мафиози, они вершат свой суд. Однако эта акция имеет трагические последствия для них самих...



Качество: BDRip 720p
Формат: MKV
Видео: MPEG-4 AVC, 5546 Kбит/с, 1280x686, 25.000 кадр/с
Аудио 1: русский, AC3, 384 kbps, 6 ch, 48 kHz [профессиональный многоголосый]
Аудио 2: русский, AC3, 192 kbps, 2 ch, 48 kHz [авторский, Пётр Карцев]
Аудио 3: английский, AC3, 192 kbps, 2 ch, 48 kHz [оригинал]
Субтитры 1: русские
Субтитры 2: английские (на французскую речь)
Имеются неименованные главы/чаптеры.
Общее
Уникальный идентификатор : 188264531029782460084918833682552867540 (0x8DA26E05E817F100A4AD4097828A4AD4)
Полное имя : D:\Video\Похороны.1996.BDRip.720p by msltel.mkv
Формат : Matroska
Версия формата : Version 4 / Version 2
Размер файла : 4,20 Гбайт
Продолжительность : 1 ч. 35 м.
Общий поток : 6317 Кбит/сек
Название фильма : Rip by msltel
Дата кодирования : UTC 2017-03-25 03:00:04
Программа кодирования : mkvmerge v8.2.0 ('World of Adventure') 64bit
Библиотека кодирования : libebml v1.3.1 + libmatroska v1.4.2

Видео
Идентификатор : 1
Формат : AVC
Формат/Информация : Advanced Video Codec
Профиль формата : High@L4.1
Параметр CABAC формата : Да
Параметр ReFrames формата : 9 кадров
Идентификатор кодека : V_MPEG4/ISO/AVC
Продолжительность : 1 ч. 35 м.
Битрейт : 5546 Кбит/сек
Ширина : 1280 пикселей
Высота : 686 пикселей
Соотношение сторон : 1,85:1
Режим частоты кадров : Постоянный
Частота кадров : 25,000 кадров/сек
Цветовое пространство : YUV
Субдискретизация насыщенности : 4:2:0
Битовая глубина : 8 бит
Тип развёртки : Прогрессивная
Бит/(Пиксели*Кадры) : 0.253
Размер потока : 3,69 Гбайт (88%)
Библиотека кодирования : x264 core 146 r2538 121396c
Настройки программы : cabac=1 / ref=9 / deblock=1:-3:-2 / analyse=0x3:0x113 / me=umh / subme=11 / psy=1 / psy_rd=1.00:0.15 / mixed_ref=1 / me_range=32 / chroma_me=1 / trellis=2 / 8x8dct=1 / cqm=0 / deadzone=21,11 / fast_pskip=0 / chroma_qp_offset=-3 / threads=6 / lookahead_threads=1 / sliced_threads=0 / nr=0 / decimate=1 / interlaced=0 / bluray_compat=0 / constrained_intra=0 / bframes=14 / b_pyramid=2 / b_adapt=2 / b_bias=0 / direct=1 / weightb=1 / open_gop=0 / weightp=2 / keyint=240 / keyint_min=24 / scenecut=40 / intra_refresh=0 / rc_lookahead=40 / rc=crf / mbtree=0 / crf=20.0 / qcomp=0.60 / qpmin=0 / qpmax=69 / qpstep=4 / vbv_maxrate=62500 / vbv_bufsize=78125 / crf_max=0.0 / nal_hrd=none / filler=0 / ip_ratio=1.40 / pb_ratio=1.30 / aq=1:1.00
Язык : English
Default : Да
Forced : Нет

Аудио #1
Идентификатор : 2
Формат : AC-3
Формат/Информация : Audio Coding 3
Параметр Endianness формата : Big
Идентификатор кодека : A_AC3
Продолжительность : 1 ч. 35 м.
Вид битрейта : Постоянный
Битрейт : 384 Кбит/сек
Каналы : 6 каналов
Расположение каналов : Front: L C R, Side: L R, LFE
Частота : 48,0 КГц
Частота кадров : 31,250 кадров/сек (1536 spf)
Битовая глубина : 16 бит
Метод сжатия : С потерями
Размер потока : 261 Мбайт (6%)
Заголовок : MVO
Язык : Russian
ServiceKind/String : Complete Main
Default : Да
Forced : Нет

Аудио #2
Идентификатор : 3
Формат : AC-3
Формат/Информация : Audio Coding 3
Параметр Endianness формата : Big
Идентификатор кодека : A_AC3
Продолжительность : 1 ч. 35 м.
Вид битрейта : Постоянный
Битрейт : 192 Кбит/сек
Каналы : 2 канала
Расположение каналов : Front: L R
Частота : 48,0 КГц
Частота кадров : 31,250 кадров/сек (1536 spf)
Битовая глубина : 16 бит
Метод сжатия : С потерями
Размер потока : 131 Мбайт (3%)
Заголовок : AVO (Пётр Карцев)
Язык : Russian
ServiceKind/String : Complete Main
Default : Нет
Forced : Нет

Аудио #3
Идентификатор : 4
Формат : AC-3
Формат/Информация : Audio Coding 3
Параметр Endianness формата : Big
Идентификатор кодека : A_AC3
Продолжительность : 1 ч. 35 м.
Вид битрейта : Постоянный
Битрейт : 192 Кбит/сек
Каналы : 2 канала
Расположение каналов : Front: L R
Частота : 48,0 КГц
Частота кадров : 31,250 кадров/сек (1536 spf)
Битовая глубина : 16 бит
Метод сжатия : С потерями
Размер потока : 131 Мбайт (3%)
Заголовок : original
Язык : English
ServiceKind/String : Complete Main
Default : Нет
Forced : Нет

Текст #1
Идентификатор : 5
Формат : UTF-8
Идентификатор кодека : S_TEXT/UTF8
Идентификатор кодека/Информация : UTF-8 Plain Text
Продолжительность : 1 ч. 31 м.
Битрейт : 72 бит/сек
ElementCount : 731
Размер потока : 48,7 Кбайт (0%)
Заголовок : русские
Язык : Russian
Default : Нет
Forced : Нет

Текст #2
Идентификатор : 6
Формат : UTF-8
Идентификатор кодека : S_TEXT/UTF8
Идентификатор кодека/Информация : UTF-8 Plain Text
Продолжительность : 42 м. 19 с.
Битрейт : 3 бит/сек
ElementCount : 39
Размер потока : 1,13 Кбайт (0%)
Заголовок : английские (на французскую речь)
Язык : English
Default : Нет
Forced : Нет

Меню
00:00:00.000 : :Chapter 01
00:04:26.240 : :Chapter 02
00:14:05.160 : :Chapter 03
00:24:28.920 : :Chapter 04
00:32:48.920 : :Chapter 05
00:42:49.320 : :Chapter 06
00:52:17.000 : :Chapter 07
01:01:23.880 : :Chapter 08
01:09:36.320 : :Chapter 09
01:20:04.760 : :Chapter 10
01:28:42.520 : :Chapter 11
01:31:36.400 : :Chapter 12
pb.wtf



Скачать Похороны через торрент http://hostpic.gq/img/2017-03/25/gzqs4jgzr2p2pluf073n2q1or.jpg Скачать фильм Похороны через торрент бесплантно в хорошем качестве Описание: После убийства Джонни Темпио два его брата, Рэй и Чез, по законам семьи, обязаны отомстить за его смерть. С упорством, ... 9 10 9
Info! Золотая раздача, скачанное не засчитывается.
Торрент: Зарегистрирован [2017-03-25 08:06] · скачан: 76 раз
Статус: √ проверено
Размер: 4.2 GB
Как cкачать? Как скачать Похороны через торрент | qTorrent

% Раздел Тема Автор DL S | L
Фильмы [HD 720p, 1080p] (Хороший звук DUB, MVO) [ 9.41 GB ] Похороны / The Funeral [1996 BDRip 1080p by msltel] MVO AVO msltel Скачать
1 | 0

28-11-2019 20:33  

Отключить всю рекламу на сайте

25-03-2017 08:27 Похороны Скачать торрент  

спасибо.-забираюpb.wtf



    Дорогой пользователь! Огромная просьба, поблагодарите релизера, оцените раздачу и оставьте свои комментарий, если Вы скачали Похороны через торрент бесплатно! Внесите свою лепту в развитие PiratBit!
    Комментировать посты могут только пользователи прошедшие не сложную регистрацию
    Показать сообщения:    

    Похороны через торрент
    Скачать бесплатно Похороны
    Похороны скачать торрент
    Похороны смотреть онлайн
    Cкачать фильм Похороны бесплатно
    Похороны скачать торрент в хорошем качестве
    Похороны смотреть онлайн бесплатно в хорошем качестве


    Вы не можете начинать темы
    Вы не можете отвечать на сообщения
    Вы не можете редактировать свои сообщения
    Вы не можете удалять свои сообщения
    Вы не можете голосовать в опросах
    Вы не можете прикреплять файлы к сообщениям
    Вы можете скачивать файлы