2 сезон

iTunes

1 сезон

1

iTunes

iTunes

iTunes

1 сезон

RePack

30

ИГРА 18+

pack

ВАЖНО

!!Акция!!

Alien_RageХит недели

RePack

MK11
pack

Забери бонус

RePack

jed

!!Акция!!

Alien_Rage

RePack

fifa19

RePack

Assassins Creed: Odyssey

RePack

NEED FOR SPEED™ PAYBACK

4 сезон

9 сезон

Бесстыжие 9 сезон

Все сериалы

все сериалы на PB.wtf

RePack

FAR CRY 5
  

Парфюмерша / Cезон 3 / Серия 1-4 из 4 / (Ольга Ланд, Игорь Ройзман) [2017 г., Мелодрама, SATRip] pb.wtf

Парфюмерша через торрент pb.wtf

Размер: 2.52 GB | Добавлен: 3 года 7 мес. назад | Торрент скачан:39 раз
Скачать  

25-03-2017 11:30 Парфюмерша Скачать торрент  

Парфюмерша / Cезон 3 / Серия 1-4 из 4 /
Год выпуска: 2017
Страна: Россия
Жанр: Мелодрама
Продолжительность: 4 х 00:47:00
Субтитры: нет

Режиссер: Ольга Ланд, Игорь Ройзман

В ролях: Мария Куликова, Александр Никитин, Наталья Рогожкина, Елена Санаева, Семен Шкаликов

Описание: Впервые за долгое время Наталья Баранова счастлива: бизнес-конкуренции с ее любимым мужчиной Александром положен конец. Созданный ею аромат "Дурнопьян" отныне производит компания Александра "Новая Эра", и любимый - теперь ее босс. Неразлучные и дома, и на работе, они не чают души друг в друге. Но внутри "Новой Эры" многие недовольны избранницей директора. Один из них - Вадим, главный приближенный Александра, вернее, он был таковым до прихода Натальи. Не желая мириться с особым положением конкурентки, Вадим решает устранить ее с пути, вбив клин между ней и боссом. Между тем, у компании возникают серьезные проблемы: внезапная прокурорская проверка выявила грубейшие нарушения в финансовой отчетности.

Качество: SATRip
Формат: AVI
Видео кодек: XviD
Аудио кодек: MP3
Видео: 720x400 (1.80:1), 25 fps, XviD build 50 ~1842 kbps
Аудио: 48 kHz, MPEG Layer 3, 2 ch, ~128.00 kbps avg



General
Complete name : H:\релизы.торрентфайл\Parfjumersha.3.SATRip.[www.riperam.org]\Parfjumersha.3.01.SATRip.[www.riperam.org].avi
Format : AVI
Format/Info : Audio Video Interleave
File size : 669 MiB
Duration : 47mn 16s
Overall bit rate : 1 979 Kbps
Writing application : VirtualDubMod 1.5.10.3 (build 2550/release)
Writing library : VirtualDubMod build 2550/release

Video
ID : 0
Format : MPEG-4 Visual
Format profile : Advanced Simple@L5
Format settings, BVOP : 2
Format settings, QPel : No
Format settings, GMC : No warppoints
Format settings, Matrix : Default (H.263)
Codec ID : XVID
Codec ID/Hint : XviD
Duration : 47mn 16s
Bit rate : 1 842 Kbps
Width : 720 pixels
Height : 400 pixels
Display aspect ratio : 16:9
Frame rate : 25.000 fps
Color space : YUV
Chroma subsampling : 4:2:0
Bit depth : 8 bits
Scan type : Progressive
Compression mode : Lossy
Bits/(Pixel*Frame) : 0.256
Stream size : 623 MiB (93%)
Writing library : XviD 1.2.1 (UTC 2008-12-04)

Audio
ID : 1
Format : MPEG Audio
Format version : Version 1
Format profile : Layer 3
Mode : Joint stereo
Mode extension : MS Stereo
Codec ID : 55
Codec ID/Hint : MP3
Duration : 47mn 16s
Bit rate mode : Constant
Bit rate : 128 Kbps
Channel(s) : 2 channels
Sampling rate : 48.0 KHz
Compression mode : Lossy
Stream size : 43.3 MiB (6%)
Alignment : Aligned on interleaves
Interleave, duration : 40 ms (1.00 video frame)
Interleave, preload duration : 504 ms
Writing library : LAME3.99r
Encoding settings : -m j -V 4 -q 9 -lowpass 17 -b 128

pb.wtf



Скачать Парфюмерша через торрент http://i91.fastpic.ru/big/2017/0325/66/651cce53347c45f7fd0f1338529d2566.jpg Скачать фильм Парфюмерша через торрент бесплантно в хорошем качестве Описание: Впервые за долгое время Наталья Баранова счастлива: бизнес-конкуренции с ее любимым мужчиной Александром положен конец. Созданный ... 7.7 10 3
Торрент: Зарегистрирован [2017-03-25 11:30] · скачан: 39 раз
Статус: √ проверено
Размер: 2.52 GB
Как cкачать? Как скачать Парфюмерша через торрент | qTorrent

28-11-2019 20:33  

Отключить всю рекламу на сайте

    Дорогой пользователь! Огромная просьба, поблагодарите релизера, оцените раздачу и оставьте свои комментарий, если Вы скачали Парфюмерша через торрент бесплатно! Внесите свою лепту в развитие PiratBit!
    Комментировать посты могут только пользователи прошедшие не сложную регистрацию
    Показать сообщения:    

    Парфюмерша через торрент
    Скачать бесплатно Парфюмерша
    Парфюмерша скачать торрент
    Парфюмерша смотреть онлайн
    Cкачать фильм Парфюмерша бесплатно
    Парфюмерша скачать торрент в хорошем качестве
    Парфюмерша смотреть онлайн бесплатно в хорошем качестве


    Вы не можете начинать темы
    Вы не можете отвечать на сообщения
    Вы не можете редактировать свои сообщения
    Вы не можете удалять свои сообщения
    Вы не можете голосовать в опросах
    Вы не можете прикреплять файлы к сообщениям
    Вы можете скачивать файлы