Ссылка на приватное зеркало всего за 1$. Внимание количество ограничено!!!

iTunes

iTunes

iTunes

1

iTunes

iTunes

iTunes

iTunes

iTunes

30
pack

$ от Little Big

ВАЖНО

!!Акция!!

Alien_RageХит недели

RePack

Resident Evil 21

ИГРА 18+

pack

RePack

jed

!!Акция!!

Alien_Rage

RePack

fifa19

RePack

Assassins Creed: Odyssey

RePack

NEED FOR SPEED™ PAYBACK

4 сезон

9 сезон

Бесстыжие 9 сезон

Все сериалы

все сериалы на PB.wtf

RePack

FAR CRY 5
  

Из дома на Уиллоу-стрит / From a House on Willow Street (Аластер Орр) [2016, ужасы, WEB-DL 1080p] Любительский одноголосый [BadBajo] pb.wtf

Из дома на Уиллоу-стрит через торрент pb.wtf

Размер: 3.25 GB | Добавлен: 3 года 3 мес. назад | Торрент скачан:125 раз
Скачать  

25-03-2017 16:01 Из дома на Уиллоу-стрит Скачать торрент  

Из дома на Уиллоу-стрит / From a House on Willow Street

Год выпуска: 2016
Страна: ЮАР
Жанр: ужасы
Продолжительность: 01:26:30
Перевод: Любительский одноголосый [BadBajo]
Примечание: Релиз без рекламы!
Субтитры: английские
Режиссер: Аластер Орр
В ролях:

Карлин Берчелл (Katherine), Gustav Gerdener (James), Zino Ventura (Mark), Шарни Винсон (Hazel), Стивен Джон Уорд (Ade)
Описание:
Отец Кэтрин работает в алмазодобывающей компании, и четверо злоумышленников решают похитить его дочь, чтобы получить выкуп. Они проникают в дом, хватают Кэтрин и увозят её на заброшенный завод. Но вскоре они напрочь забудут об алмазах и пожалеют о своем замысле - похищенная заставит их иначе расставить жизненные приоритеты.
Рейтинг:

Качество: WEB-DL 1080p
Формат: MKV
Видео: AVC, 1920x808 (2.40:1), 4497 kbps, 23,976 fps, 0,121 bpp
Аудио №1: русский / AC3 / 5.1 / 48 kHz / 384 kbps / |VO, BadBajo|
Аудио №2: английский / AC3 / 5.1 / 48 kHz / 384 kbps /
Навигация по главам: есть

General
Unique ID : 196457090085517941741794289900931049409 (0x93CC425EC04C123581D5DA5F6540E7C1)
Complete name : E:\From.a.House.on.Willow.Street.2016.1080p.WEB-DL_rus_BadBajo.mkv
Format : Matroska
Format version : Version 4 / Version 2
File size : 3.25 GiB
Duration : 1 h 26 min
Overall bit rate : 5 372 kb/s
Movie name : From.a.House.on.Willow.Street.2016.1080p.WEB-DL.DD5.1.H264-FGT
Encoded date : UTC 2017-03-25 13:01:34
Writing application : mkvmerge v9.5.0 ('Quiet Fire') 64bit
Writing library : libebml v1.3.4 + libmatroska v1.4.5
Cover : Yes
Attachments : cover.jpg

Video
ID : 1
Format : AVC
Format/Info : Advanced Video Codec
Format profile : High@L4
Format settings, CABAC : Yes
Format settings, ReFrames : 5 frames
Codec ID : V_MPEG4/ISO/AVC
Duration : 1 h 26 min
Bit rate : 4 497 kb/s
Width : 1 920 pixels
Height : 808 pixels
Display aspect ratio : 2.40:1
Frame rate mode : Constant
Frame rate : 23.976 (24000/1001) FPS
Color space : YUV
Chroma subsampling : 4:2:0
Bit depth : 8 bits
Scan type : Progressive
Bits/(Pixel*Frame) : 0.121
Stream size : 2.72 GiB (84%)
Title : From.a.House.on.Willow.Street.2016.1080p.WEB-DL.DD5.1.H264-FGT
Language : English
Default : Yes
Forced : No
Color range : Limited
Color primaries : BT.709
Transfer characteristics : BT.709
Matrix coefficients : BT.709

Audio #1
ID : 2
Format : AC-3
Format/Info : Audio Coding 3
Mode extension : CM (complete main)
Format settings, Endianness : Big
Codec ID : A_AC3
Duration : 1 h 26 min
Bit rate mode : Constant
Bit rate : 384 kb/s
Channel(s) : 6 channels
Channel positions : Front: L C R, Side: L R, LFE
Sampling rate : 48.0 kHz
Frame rate : 31.250 FPS (1536 spf)
Compression mode : Lossy
Stream size : 238 MiB (7%)
Title : From.a.House.on.Willow.Street.2016_rus_BadBajo
Language : Russian
Default : Yes
Forced : Yes

Audio #2
ID : 3
Format : AC-3
Format/Info : Audio Coding 3
Mode extension : CM (complete main)
Format settings, Endianness : Big
Codec ID : A_AC3
Duration : 1 h 26 min
Bit rate mode : Constant
Bit rate : 384 kb/s
Channel(s) : 6 channels
Channel positions : Front: L C R, Side: L R, LFE
Sampling rate : 48.0 kHz
Frame rate : 31.250 FPS (1536 spf)
Compression mode : Lossy
Stream size : 238 MiB (7%)
Title : From.a.House.on.Willow.Street.2016.1080p.WEB-DL.DD5.1.H264-FGT
Language : English
Default : No
Forced : No

Text
ID : 4
Format : UTF-8
Codec ID : S_TEXT/UTF8
Codec ID/Info : UTF-8 Plain Text
Language : English
Default : No
Forced : No

Menu
00:00:00.000 : en:1
00:10:58.000 : en:2
00:22:12.000 : en:3
00:34:47.000 : en:4
00:44:34.000 : en:5
00:55:11.000 : en:6
01:10:48.000 : en:7
01:22:51.000 : en:8
pb.wtf



Скачать Из дома на Уиллоу-стрит через торрент http://i1.imageban.ru/out/2017/03/25/821db4f126eb16b98bfd5f1eb143f04e.jpg Скачать фильм Из дома на Уиллоу-стрит через торрент бесплантно в хорошем качестве Описание: Отец Кэтрин работает в алмазодобывающей компании, и четверо злоумышленников решают похитить его дочь, чтобы получить выкуп. Они ... 9.3 10 8
Торрент: Зарегистрирован [2017-03-25 16:01] · скачан: 125 раз
Статус: T временная
Размер: 3.25 GB
Как cкачать? Как скачать Из дома на Уиллоу-стрит через торрент | qTorrent

% Раздел Тема Автор DL S | L
T R.G. Resident & PiratVoice - Фильмы, Видео [ 1.91 GB ] Из дома на Уиллоу-стрит / From a House on Willow Street [2016 WEB-DLRip-AVC от R.G. Resident] VO [BadBajo] -Lexx- Скачать
1 | 0

28-11-2019 20:33  

Отключить всю рекламу на сайте

26-03-2017 00:31 Из дома на Уиллоу-стрит Скачать торрент  

Что скажите?pb.wtf



26-03-2017 02:42 Из дома на Уиллоу-стрит Скачать торрент  

Скажу, что нужно все-таки учить русский язык. Вот.pb.wtf



26-03-2017 13:43 Из дома на Уиллоу-стрит Скачать торрент  

elektrik1357 писал(а):

Скажу, что нужно все-таки учить русский язык. Вот.

pb.wtf



    Дорогой пользователь! Огромная просьба, поблагодарите релизера, оцените раздачу и оставьте свои комментарий, если Вы скачали Из дома на Уиллоу-стрит через торрент бесплатно! Внесите свою лепту в развитие PiratBit!
    Комментировать посты могут только пользователи прошедшие не сложную регистрацию
    Показать сообщения:    

    Из дома на Уиллоу-стрит через торрент
    Скачать бесплатно Из дома на Уиллоу-стрит
    Из дома на Уиллоу-стрит скачать торрент
    Из дома на Уиллоу-стрит смотреть онлайн
    Cкачать фильм Из дома на Уиллоу-стрит бесплатно
    Из дома на Уиллоу-стрит скачать торрент в хорошем качестве
    Из дома на Уиллоу-стрит смотреть онлайн бесплатно в хорошем качестве


    Вы не можете начинать темы
    Вы не можете отвечать на сообщения
    Вы не можете редактировать свои сообщения
    Вы не можете удалять свои сообщения
    Вы не можете голосовать в опросах
    Вы не можете прикреплять файлы к сообщениям
    Вы можете скачивать файлы