Мега распродажа FORZA HORIZON 4 ULTIMATE+ВСЕ DLC+ОНЛАЙН всего за 499р. 349 руб. (супер цена). Внимание количество ограничено!!!

iTunes

1+1

iTunes

мы

iTunes

1

1 сезон

Чернобыль

1 сезон

Ральф против интернета

Лицензия

ПШазам

8 сезон

Игра престолов

Лицензия

30
pack

ВАЖНО

!!Акция!!

Alien_RageХит недели

RePack

Resident Evil 21

ИГРА 18+

pack

RePack

Metro:Exodus

!!Акция!!

Alien_Rage

RePack

fifa19

RePack

Assassins Creed: Odyssey

RePack

NEED FOR SPEED™ PAYBACK

3 сезон

9 сезон

Бесстыжие 9 сезон

Все сериалы

все сериалы на PB.wtf

RePack

FAR CRY 5
Ребята, катастрофически не хватает 2730р. для оплаты серверов за ИЮНЬ (всвязи с блокировками трафик упал в 3 раза), 1-2р., выручайте.
  

Неаполитанский детектив / Giallo napoletano (Серджо Корбуччи) [1979 г., Kомедия, детектив, DVDRip-AVC, Профессиональный (двухголосый)] от ExKinoRay pb.wtf

Неаполитанский детектив через торрент pb.wtf

Размер: 2.8 GB | Добавлен: 2 года 3 мес. назад | Торрент скачан:14 раз
Скачать  

26-03-2017 03:41 Неаполитанский детектив Скачать торрент  

Неаполитанский детектив / Giallo napoletano
Год выпуска: 1979
Страна: Италия
Жанр: Kомедия, детектив
Продолжительность: 01:51:49

Режиссер: Серджо Корбуччи

Премьера в мире: 12 апреля 1979

rating

В ролях: Марчелло Мастроянни, Орнелла Мути, Ренато Поццетто, Мишель Пикколи, Зеуди Арайа, Капючин, Пеппино Де Филиппо, Елена Фиоре, Пеппе Барра, Эннио Антонелли, Франка Сканьетти, Натали Тулли

Описание: Скромный музыкант Рафэ, оказавшись случайным свидетелем убийства, решает переквалифицироваться в частного сыщика. В ходе расследования он встречается со странными людьми и постоянно попадает в нелепые и смешные ситуации.

Качество: DVDRip-AVC
Формат: MKV
Видео кодек: MPEG4
Аудио кодек: AC3
Видео: 3200 Кбит/с, 718x412@765x412, 25.000 кадров/сек
Аудио#1: Русский (AC3, 2 ch, 192 Кбит/с, 48 КГц)
Аудио#2: Итальянский (AC3, 2 ch, 192 Кбит/с, 48 КГц)
Релиз от:




raw [info]: 718x412p 16:15 @ 25/1 fps (cfr)
x264 [info]: using SAR=16/15
x264 [info]: using cpu capabilities: MMX2 SSE2Fast LZCNT
x264 [info]: profile High, level 4.1
x264 [info]: frame I:1071 Avg QP:17.61 size: 62636
x264 [info]: frame P:38025 Avg QP:19.78 size: 29395
x264 [info]: frame B:128629 Avg QP:22.58 size: 11647
x264 [info]: consecutive B-frames: 1.7% 3.6% 8.8% 25.2% 20.4% 35.0% 4.1% 0.8% 0.2% 0.1% 0.0% 0.0% 0.0% 0.0% 0.0% 0.0% 0.3%
-----
Общее
Уникальный идентификатор : 252891764394363169209993671697667137945 (0xBE412EA2EDE147B595E384C5EE132199)
Полное имя : E:\Giallo.napoletano.1979.DVDRip-AVC.ExKinoRay.mkv
Формат : Matroska
Версия формата : Version 2
Размер файла : 2,80 Гбайт
Продолжительность : 1 ч. 51 м.
Общий поток : 3585 Кбит/сек
Дата кодирования : UTC 2017-03-26 00:45:46
Программа кодирования : mkvmerge v7.8.0 ('River Man') 32bit built on Apr 3 2015 12:11:22
Библиотека кодирования : libebml v1.3.1 + libmatroska v1.4.2

Видео
Идентификатор : 1
Формат : AVC
Формат/Информация : Advanced Video Codec
Профиль формата : High@L4.1
Параметр CABAC формата : Да
Параметр ReFrames формата : 14 кадров
Идентификатор кодека : V_MPEG4/ISO/AVC
Продолжительность : 1 ч. 51 м.
Битрейт : 3200 Кбит/сек
Ширина : 718 пикселей
Высота : 412 пикселей
Соотношение сторон : 1,85:1
Соотношение сторон в оригинале : 1,85:1
Режим частоты кадров : Постоянный
Частота кадров : 25,000 кадров/сек
Цветовое пространство : YUV
Субдискретизация насыщенности : 4:2:0
Битовая глубина : 8 бит
Тип развёртки : Прогрессивная
Бит/(Пиксели*Кадры) : 0.433
Размер потока : 2,44 Гбайт (87%)
Библиотека кодирования : x264 core 148 r2638 7599210
Настройки программы : cabac=1 / ref=14 / deblock=1:-2:-2 / analyse=0x3:0x133 / me=umh / subme=10 / psy=1 / psy_rd=1.05:0.15 / mixed_ref=1 / me_range=32 / chroma_me=1 / trellis=2 / 8x8dct=1 / cqm=0 / deadzone=21,11 / fast_pskip=0 / chroma_qp_offset=-3 / threads=4 / lookahead_threads=1 / sliced_threads=0 / nr=0 / decimate=0 / interlaced=0 / bluray_compat=0 / constrained_intra=0 / bframes=16 / b_pyramid=2 / b_adapt=2 / b_bias=0 / direct=3 / weightb=1 / open_gop=0 / weightp=2 / keyint=250 / keyint_min=25 / scenecut=40 / intra_refresh=0 / rc=2pass / mbtree=0 / bitrate=3200 / ratetol=1.0 / qcomp=0.60 / qpmin=0 / qpmax=69 / qpstep=4 / cplxblur=20.0 / qblur=0.5 / ip_ratio=1.40 / pb_ratio=1.30 / aq=1:1.00
Язык : English
Default : Да
Forced : Нет
Цветовой диапазон : Limited
Основные цвета : BT.601 NTSC
Характеристики трансфера : BT.601
Коэффициенты матрицы : BT.601

Аудио #1
Идентификатор : 2
Формат : AC-3
Формат/Информация : Audio Coding 3
Расширение режима : CM (complete main)
Параметр Endianness формата : Big
Идентификатор кодека : A_AC3
Продолжительность : 1 ч. 51 м.
Вид битрейта : Постоянный
Битрейт : 192 Кбит/сек
Каналы : 2 канала
Расположение каналов : Front: L R
Частота : 48,0 КГц
Частота кадров : 31,250 кадров/сек (1536 spf)
Метод сжатия : С потерями
Размер потока : 154 Мбайт (5%)
Язык : Russian
Default : Да
Forced : Нет

Аудио #2
Идентификатор : 3
Формат : AC-3
Формат/Информация : Audio Coding 3
Расширение режима : CM (complete main)
Параметр Endianness формата : Big
Идентификатор кодека : A_AC3
Продолжительность : 1 ч. 51 м.
Вид битрейта : Постоянный
Битрейт : 192 Кбит/сек
Каналы : 2 канала
Расположение каналов : Front: L R
Частота : 48,0 КГц
Частота кадров : 31,250 кадров/сек (1536 spf)
Метод сжатия : С потерями
Размер потока : 154 Мбайт (5%)
Язык : Italian
Default : Нет
Forced : Нет

pb.wtf



Скачать Неаполитанский детектив через торрент http://s019.radikal.ru/i613/1703/79/98c49b84ca96.jpg Скачать фильм Неаполитанский детектив через торрент бесплантно в хорошем качестве Описание: Скромный музыкант Рафэ, оказавшись случайным свидетелем убийства, решает переквалифицироваться в частного сыщика. В ходе ... 10 10 1
Info! Золотая раздача, скачанное не засчитывается.
Торрент: Зарегистрирован [2017-03-26 03:41] · скачан: 14 раз
Статус: √ проверено
Размер: 2.8 GB
Как cкачать? Как скачать Неаполитанский детектив через торрент | qTorrent


>> Регистрируемся здесь <<






Отзывы и комментарии о схеме читаем и пишем здесь: ---> Отзывы и комментарии о схеме

Новые благодарочки в телеграм довольных пользователей:
скриншот   скриншот   скриншот   скриншот   скриншот
    Дорогой пользователь! Огромная просьба, поблагодарите релизера, оцените раздачу и оставьте свои комментарий, если Вы скачали Неаполитанский детектив через торрент бесплатно! Внесите свою лепту в развитие PiratBit!
    Комментировать посты могут только пользователи прошедшие не сложную регистрацию
    Показать сообщения:    

    Неаполитанский детектив через торрент
    Скачать бесплатно Неаполитанский детектив
    Неаполитанский детектив скачать торрент
    Неаполитанский детектив смотреть онлайн
    Cкачать фильм Неаполитанский детектив бесплатно
    Неаполитанский детектив скачать торрент в хорошем качестве
    Неаполитанский детектив смотреть онлайн бесплатно в хорошем качестве


    Вы не можете начинать темы
    Вы не можете отвечать на сообщения
    Вы не можете редактировать свои сообщения
    Вы не можете удалять свои сообщения
    Вы не можете голосовать в опросах
    Вы не можете прикреплять файлы к сообщениям
    Вы можете скачивать файлы