Ссылка на приватное зеркало нашего сайта всего за 1$. Внимание количество ограничено!!!

2 сезон

iTunes

1 сезон

1

iTunes

iTunes

iTunes

1 сезон

RePack

30

ИГРА 18+

pack

ВАЖНО

!!Акция!!

Alien_RageХит недели

RePack

MK11
pack

Забери бонус

RePack

jed

!!Акция!!

Alien_Rage

RePack

fifa19

RePack

Assassins Creed: Odyssey

RePack

NEED FOR SPEED™ PAYBACK

4 сезон

9 сезон

Бесстыжие 9 сезон

Все сериалы

все сериалы на PB.wtf

RePack

FAR CRY 5
  

Охота на дикарей / Hunt for the Wilderpeople (Тайка Вайтити) [2016, драма, комедия, приключения, BDRip 1080p] MVO [Лицензия] pb.wtf

Охота на дикарей через торрент pb.wtf

Размер: 11 GB | Добавлен: 3 года 7 мес. назад | Торрент скачан:188 раз
Скачать  

26-03-2017 06:25 Охота на дикарей Скачать торрент  

Охота на дикарей / Hunt for the Wilderpeople

Год выпуска: 2016
Страна: Новая Зеландия
Жанр: драма, комедия, приключения

Продолжительность: 01:40:59
Перевод: Профессиональный многоголосый [Лицензия]
Субтитры: русские (Full), английские (Full), английские (SDH)
Режиссер: Тайка Вайтити
В ролях:

Сэм Нил (Hec), Джулиан Деннисон (Ricky), Рима Те Вьята (Bella), Рэйчел Хаус (Paula), Tioreore Ngatai-Melbourne (Kahu), Оскар Кайтли (Andy), Стэн Уокер (Ron), Майк Миноуг (Joe), Коэн Холлоуэй (Hugh), Риз Дэрби (Psycho Sam), Трой Кинги (TK), Тайка Вайтити (Minister)
Описание:
Рикки Бэйкер - упитанный городской хулиган. Сотрудница социальной службы Пола отвозит подростка в сельскую местность, где живёт единственная готовая принять его семья - Белла и её нелюдимый муж Гек. Когда Белла умирает и социальная защита собирается забрать Рикки, тот убегает в леса. Гек отправляется за ним. Сумасбродная Пола убеждена, что странный Гек слетел с катушек из-за смерти жены и похитил подростка. Она развязывает общенациональную охоту на мальчика и его «совратителя».
Рейтинг:

MPAA: PG-13 - Детям до 13 лет просмотр не желателен
Качество: BDRip 1080p
Формат: MKV
Видео: AVC, 1920x800 (2.40:1), 13470 kbps, 24 fps, 0,365 bpp
Аудио №1: русский / AC3 / 5.1 / 48 kHz / 640 kbps / |MVO, Лицензия|
Аудио №2: английский / DTS / 5.1 / 48 kHz / 1509 kbps / 24 bit
Навигация по главам: есть
Релиз от:
General
Unique ID : 252656214208175493929143086140361088984 (0xBE13D11D997F9443A346073563851FD8)
Complete name : E:\Hunt.for.the.Wilderpeople.2016.BDRip.1080p.ExKinoRay.mkv
Format : Matroska
Format version : Version 4 / Version 2
File size : 11.0 GiB
Duration : 1 h 40 min
Overall bit rate : 15.6 Mb/s
Movie name : ***селезень***
Encoded date : UTC 2017-03-26 01:33:10
Writing application : mkvmerge v10.0.0 ('To Drown In You') 64bit
Writing library : libebml v1.3.4 + libmatroska v1.4.5
Cover : Yes
Attachments : cover.jpg

Video
ID : 1
Format : AVC
Format/Info : Advanced Video Codec
Format profile : High@L4.1
Format settings, CABAC : Yes
Format settings, ReFrames : 5 frames
Codec ID : V_MPEG4/ISO/AVC
Duration : 1 h 40 min
Bit rate : 13.5 Mb/s
Width : 1 920 pixels
Height : 800 pixels
Display aspect ratio : 2.40:1
Frame rate mode : Constant
Frame rate : 24.000 FPS
Color space : YUV
Chroma subsampling : 4:2:0
Bit depth : 8 bits
Scan type : Progressive
Bits/(Pixel*Frame) : 0.365
Stream size : 9.27 GiB (84%)
Writing library : x264 core 142 r2431+42 c69a006 tMod [8-bit@all X86_64]
Encoding settings : cabac=1 / ref=5 / deblock=1:-3:-3 / analyse=0x3:0x113 / me=umh / subme=11 / psy=1 / fade_compensate=0.00 / psy_rd=1.05:1.05 / mixed_ref=1 / me_range=48 / chroma_me=1 / trellis=2 / 8x8dct=1 / cqm=0 / deadzone=21,11 / fast_pskip=0 / chroma_qp_offset=-4 / threads=16 / lookahead_threads=4 / sliced_threads=0 / nr=0 / decimate=0 / interlaced=0 / bluray_compat=0 / constrained_intra=0 / fgo=0 / bframes=10 / b_pyramid=2 / b_adapt=2 / b_bias=0 / direct=3 / weightb=1 / open_gop=0 / weightp=2 / keyint=240 / keyint_min=24 / scenecut=40 / intra_refresh=0 / rc_lookahead=150 / rc=2pass / mbtree=0 / bitrate=13470 / ratetol=1.0 / qcomp=0.70 / qpmin=0:0:0 / qpmax=69:69:69 / qpstep=4 / cplxblur=20.0 / qblur=0.5 / vbv_maxrate=62500 / vbv_bufsize=78125 / nal_hrd=none / filler=0 / ip_ratio=1.30 / pb_ratio=1.40 / aq=2:0.80 / aq-sensitivity=10.00 / aq-factor=1.00:1.00:1.00 / aq2=0 / aq3=0
Language : English
Default : Yes
Forced : No
Color range : Limited
Color primaries : BT.709
Transfer characteristics : BT.709
Matrix coefficients : BT.709

Audio #1
ID : 2
Format : AC-3
Format/Info : Audio Coding 3
Mode extension : CM (complete main)
Format settings, Endianness : Big
Codec ID : A_AC3
Duration : 1 h 40 min
Bit rate mode : Constant
Bit rate : 640 kb/s
Channel(s) : 6 channels
Channel positions : Front: L C R, Side: L R, LFE
Sampling rate : 48.0 kHz
Frame rate : 31.250 FPS (1536 spf)
Compression mode : Lossy
Stream size : 462 MiB (4%)
Title : MVO [License]
Language : Russian
Default : Yes
Forced : No

Audio #2
ID : 3
Format : DTS
Format/Info : Digital Theater Systems
Mode : 16
Format settings, Endianness : Big
Codec ID : A_DTS
Duration : 1 h 40 min
Bit rate mode : Constant
Bit rate : 1 509 kb/s
Channel(s) : 6 channels
Channel positions : Front: L C R, Side: L R, LFE
Sampling rate : 48.0 kHz
Frame rate : 93.750 FPS (512 spf)
Bit depth : 24 bits
Compression mode : Lossy
Stream size : 1.06 GiB (10%)
Title : Original
Language : English
Default : No
Forced : No

Text #1
ID : 4
Format : UTF-8
Codec ID : S_TEXT/UTF8
Codec ID/Info : UTF-8 Plain Text
Title : Full
Language : Russian
Default : No
Forced : No

Text #2
ID : 5
Format : UTF-8
Codec ID : S_TEXT/UTF8
Codec ID/Info : UTF-8 Plain Text
Title : Full
Language : English
Default : No
Forced : No

Text #3
ID : 6
Format : UTF-8
Codec ID : S_TEXT/UTF8
Codec ID/Info : UTF-8 Plain Text
Title : SDH
Language : English
Default : No
Forced : No

Menu
00:00:00.000 : en:00:00:00.000
00:06:04.792 : en:00:06:04.792
00:16:58.917 : en:00:16:58.917
00:25:29.375 : en:00:25:29.375
00:36:20.042 : en:00:36:20.042
00:43:50.958 : en:00:43:50.958
00:51:02.833 : en:00:51:02.833
00:59:52.167 : en:00:59:52.167
01:08:52.208 : en:01:08:52.208
01:18:39.583 : en:01:18:39.583
01:29:48.417 : en:01:29:48.417
01:36:13.625 : en:01:36:13.625
pb.wtf



Скачать Охота на дикарей через торрент http://i1.imageban.ru/out/2017/03/26/8026be3f45ae47eae499629893bb4a5f.jpg Скачать фильм Охота на дикарей через торрент бесплантно в хорошем качестве Описание: Рикки Бэйкер - упитанный городской хулиган. Сотрудница социальной службы Пола отвозит подростка в сельскую местность, где живёт ... 8.5 10 6
Торрент: Зарегистрирован [2017-03-26 06:25] · скачан: 188 раз
Статус: √ проверено
Размер: 11 GB
Как cкачать? Как скачать Охота на дикарей через торрент | qTorrent

% Раздел Тема Автор DL S | L
Фильмы 2016 [DVDrip, WEB-DLRip, HDrip] (DUB, MVO) [ 2.05 GB ] Охота на дикарей / Hunt for the Wilderpeople [2016 BDRip-AVC] DUB [] от ExKinoRay Enigma2010 Скачать
1 | 0
Фильмы с авторской озвучкой [ 1.47 GB ] Охота на дикарей / Hunt for the Wilderpeople [2016 BDRip] [AVO] killermax2013 Скачать
1 | 0
Фильмы (Blu-ray, BD-Remux, HDDVD) [ 26.74 GB ] Охота на дикарей / Hunt for the Wilderpeople [2016 BDRemux 1080p] от ExKinoRay / MVO / Russian Mafia Скачать
1 | 0
Фильмы 2016 [DVDrip, WEB-DLRip, HDrip] (DUB, MVO) [ 2.04 GB ] Охота на дикарей / Hunt for the Wilderpeople [2016 HDRip многоголосый ""] coc900 Скачать
1 | 0
Фильмы с украинским озвучиванием [ 1.42 GB ] Охота на дикарей / Полювання на диких людей / Hunt for the Wilderpeople [2016 BDRip] [Ukr VO] killermax2013 Скачать
1 | 0
Фильмы 2016 [DVDrip, WEB-DLRip, HDrip] (DUB, MVO) [ 1.46 GB ] Охота на дикарей / Hunt for the Wilderpeople [2016 BDRip] многоголосный [] Twi7ter Скачать
1 | 0
Фильмы без перевода [ 26.49 GB ] Охота на дикарей / Hunt for the Wilderpeople [2016 BD Remux] [Оригинал] smaster Скачать
1 | 0

28-11-2019 20:33  

Отключить всю рекламу на сайте

17-04-2017 22:02 Охота на дикарей Скачать торрент  

Хорошее кино в тамошнем нестандартном колорите кинематографа. Спс.pb.wtf



    Дорогой пользователь! Огромная просьба, поблагодарите релизера, оцените раздачу и оставьте свои комментарий, если Вы скачали Охота на дикарей через торрент бесплатно! Внесите свою лепту в развитие PiratBit!
    Комментировать посты могут только пользователи прошедшие не сложную регистрацию
    Показать сообщения:    

    Охота на дикарей через торрент
    Скачать бесплатно Охота на дикарей
    Охота на дикарей скачать торрент
    Охота на дикарей смотреть онлайн
    Cкачать фильм Охота на дикарей бесплатно
    Охота на дикарей скачать торрент в хорошем качестве
    Охота на дикарей смотреть онлайн бесплатно в хорошем качестве


    Вы не можете начинать темы
    Вы не можете отвечать на сообщения
    Вы не можете редактировать свои сообщения
    Вы не можете удалять свои сообщения
    Вы не можете голосовать в опросах
    Вы не можете прикреплять файлы к сообщениям
    Вы можете скачивать файлы