2 сезон

iTunes

MVO

1

2 сезон

iTunes

iTunes

1 сезон

RePack

30

Новинка

ВАЖНО

ИГРА 18+

pack

RePack

MK11
pack

Легкие деньги

RePack

jed

RePack

fifa19

RePack

RDR2

RePack

NEED FOR SPEED™ PAYBACK

4 сезон

9 сезон

Бесстыжие 9 сезон

Все сериалы

все сериалы на PB.wtf

RePack

FAR CRY 5

Anonymous, доброй ночи, мы не успеваем собрать деньги на оплату серверов за декабрь и январь, помогите нам пожалуйста в это трудное время. В качестве благодарности мы отключим Вам всю рекламу на сайте (укажите свой ник в строку Ваше имя)!

×
  
Magnet ссылка

Пассажиры / Passengers (Мортен Тильдум) [2016, фантастика, драма, мелодрама, приключения, BDRip 720p 60 fps от еnvy / NNNB] DUB / Лицензия pb.wtf

Пассажиры через торрент pb.wtf

Раздают: 1 [ 0 KB/s ] Качают: 1 [ 0 KB/s ]
Размер: 4.75 GB | Добавлен: 3 года 9 мес. назад | Торрент скачан:1165 раз
Скачать  

26-03-2017 07:58 Пассажиры Скачать торрент  

Информация о фильме
Русское название: Пассажиры
Оригинальное название: Passengers
Год выхода: 2016
Жанр: фантастика, драма, мелодрама, приключения
Режиссер: Мортен Тильдум
Выпущено: США
Продолжительность: 01:56:10
Перевод: Дублированный
В ролях: Дженнифер Лоуренс, Крис Прэтт, Майкл Шин, Лоуренс Фишборн, Энди Гарсиа, Винс Фостер, Кара Мишель Уайлдер, Конор Брофи, Джули Серда, Аврора Перрино
Описание:
Космический корабль с 5,000 пассажиров на борту, погруженных на время полета в искусственный сон, держит курс на планету, которая станет для них новым домом. Всё идет по плану, но из-за сбоя системы двое пассажиров неожиданно просыпаются и понимают, что до конечного пункта путешествия — 90 лет пути, и им суждено остаток жизни провести вдвоем в роскошных интерьерах корабля, оснащенного по последнему слову техники. Постепенно Джима и Аврору начинает непреодолимо тянуть друг к другу, но корабль попадает в беду, и теперь в их руках — жизнь и судьба всех обитателей корабля
Файл
Качество: BDRip 720p (исходник Blu-ray Disc Remux)
Контейнер: MKV (расширение файла)
Видео: 1280x536, 4461 Кбит/сек, 60.000 кадр/сек, AVC, x264, High@L4.1, 2.40:1, 0.108 Бит/[Пиксели*Кадры]
Аудио 1: AC-3, 640 Кбит/сек, 6 канала(ов), 48,0 КГц - Дублированный / Русский
Аудио 2: AC-3, 640 Кбит/сек, 6 канала(ов), 48,0 КГц - Оригинал / Английский
Субтитры: Русские | Полные, Английские | Полные
Форсированные субтитры: Русские
Чаптеры (Главы): Есть


Автор Рипа: Сообщество: мы в VK
Format : Matroska
Format version : Version 2
File size : 4.75 GiB
Duration : 1 h 56 min
Overall bit rate : 5 857 kb/s
Movie name : Passengers.(2016).BDRip.720p.[envy].[60fps]
Encoded date : UTC 2017-03-26 07:27:09
Writing application : mkvmerge v5.8.0 ('No Sleep / Pillow') built on Sep 2 2012 15:37:04
Writing library : libebml v1.2.3 + libmatroska v1.3.0

Video
ID : 1
Format : AVC
Format/Info : Advanced Video Codec
Format profile : High@L4.1
Format settings, CABAC : Yes
Format settings, ReFrames : 9 frames
Codec ID : V_MPEG4/ISO/AVC
Duration : 1 h 56 min
Bit rate : 4 461 kb/s
Width : 1 280 pixels
Height : 536 pixels
Display aspect ratio : 2.40:1
Frame rate mode : Constant
Frame rate : 60.000 FPS
Color space : YUV
Chroma subsampling : 4:2:0
Bit depth : 8 bits
Scan type : Progressive
Bits/(Pixel*Frame) : 0.108
Stream size : 3.62 GiB (76%)
Title : Passengers.(2016).BDRip.720p.[envy].[60fps]
Writing library : x264 core 146 r2538 121396c
Encoding settings : cabac=1 / ref=9 / deblock=1:0:0 / analyse=0x3:0x113 / me=umh / subme=11 / psy=1 / psy_rd=1.00:0.00 / mixed_ref=1 / me_range=24 / chroma_me=1 / trellis=2 / 8x8dct=1 / cqm=0 / deadzone=21,11 / fast_pskip=0 / chroma_qp_offset=-2 / threads=12 / lookahead_threads=1 / sliced_threads=0 / nr=0 / decimate=1 / interlaced=0 / bluray_compat=0 / constrained_intra=0 / bframes=5 / b_pyramid=2 / b_adapt=2 / b_bias=0 / direct=3 / weightb=1 / open_gop=0 / weightp=2 / keyint=250 / keyint_min=25 / scenecut=40 / intra_refresh=0 / rc_lookahead=40 / rc=crf / mbtree=0 / crf=17.0 / qcomp=0.60 / qpmin=0 / qpmax=69 / qpstep=4 / vbv_maxrate=14000 / vbv_bufsize=14000 / crf_max=0.0 / nal_hrd=none / filler=0 / ip_ratio=1.40 / pb_ratio=1.30 / aq=3:1.00
Language : English
Default : Yes
Forced : No

Audio #1
ID : 2
Format : AC-3
Format/Info : Audio Coding 3
Mode extension : CM (complete main)
Format settings, Endianness : Big
Codec ID : A_AC3
Duration : 1 h 56 min
Bit rate mode : Constant
Bit rate : 640 kb/s
Channel(s) : 6 channels
Channel positions : Front: L C R, Side: L R, LFE
Sampling rate : 48.0 kHz
Frame rate : 31.250 FPS (1536 spf)
Bit depth : 16 bits
Compression mode : Lossy
Stream size : 532 MiB (11%)
Title : Dub
Language : Russian
Default : Yes
Forced : No

Audio #2
ID : 3
Format : AC-3
Format/Info : Audio Coding 3
Mode extension : CM (complete main)
Format settings, Endianness : Big
Codec ID : A_AC3
Duration : 1 h 56 min
Bit rate mode : Constant
Bit rate : 640 kb/s
Channel(s) : 6 channels
Channel positions : Front: L C R, Side: L R, LFE
Sampling rate : 48.0 kHz
Frame rate : 31.250 FPS (1536 spf)
Bit depth : 16 bits
Compression mode : Lossy
Stream size : 532 MiB (11%)
Title : Eng
Language : English
Default : No
Forced : No

Text #1
ID : 4
Format : UTF-8
Codec ID : S_TEXT/UTF8
Codec ID/Info : UTF-8 Plain Text
Title : Rus forced
Language : Russian
Default : Yes
Forced : Yes

Text #2
ID : 5
Format : UTF-8
Codec ID : S_TEXT/UTF8
Codec ID/Info : UTF-8 Plain Text
Title : Rus full
Language : Russian
Default : No
Forced : No

Text #3
ID : 6
Format : UTF-8
Codec ID : S_TEXT/UTF8
Codec ID/Info : UTF-8 Plain Text
Title : Eng full
Language : English
Default : No
Forced : No

Menu
00:00:00.000 : :00:00:00.000
00:07:04.674 : :00:07:04.674
00:14:38.211 : :00:14:38.211
00:20:33.649 : :00:20:33.649
00:25:06.338 : :00:25:06.338
00:30:30.662 : :00:30:30.662
00:40:47.987 : :00:40:47.987
00:50:23.020 : :00:50:23.020
00:57:28.945 : :00:57:28.945
01:02:54.813 : :01:02:54.813
01:10:47.160 : :01:10:47.160
01:17:48.664 : :01:17:48.664
01:25:17.029 : :01:25:17.029
01:31:45.041 : :01:31:45.041
01:37:53.242 : :01:37:53.242
01:42:18.549 : :01:42:18.549
Прежде чем скачивать фильм полностью, скачайте "сэмпл", и проверьте будет ли воспроизводится видео на вашем устройстве!

Q: Присутствуют ли артефакты на изображении?
A: Да, есть, и будут, какие настройки скритпа не вписывай они будут постоянно! Так как это дорисованные кадры из исходных + Видео ряд обработан фильтром "Sharp"

Q: У меня не запускается видео на компьютере?
A: Обновите кодеки. (попробуйте другие видео проигрыватели)

Q: У меня идет рассинхрон звука и видео?
A: Проблема в мощности компьютера. (возможно также нужно обновить кодеки)

Q: Что нужно для воспроизведения данного видео.
A: Что рекомендуется для воспроизведения мной:
Процессор: 4х ядерный
Видео карта: минимум 512Мб. И желательно включить обработку изображения с помощью видео карты. (Деинтерлейсинг, подавление блочности и т.д.)
ОЗУ: 2-4Гб

Проигрыватели.
MPC-HC (Media Player Classic - Home Cinema)
The KMPlayer (Korean Multimedia Player) (оптимальный вариант)
Mirillis Splash PRO (Если что то проигрыватель сам может преобразовывать видео вплоть до частоты кадров монитора. Или тех же 60fps.)
^Прежде чем отписывать комментарии по качеству, прочитайте спойлер!

pb.wtf



Скачать Пассажиры через торрент http://img11.lostpic.net/2017/03/26/36a59970978cbc0fff6b23194be3a7f1.png Скачать фильм Пассажиры через торрент бесплантно в хорошем качестве Описание:Космический корабль с 5,000 пассажиров на борту, погруженных на время полета в искусственный сон, держит курс на планету, которая ... 9.3 10 22
Info! Золотая раздача, скачанное не засчитывается.
Торрент: Зарегистрирован [2017-03-26 07:58] · скачан: 1 165 раз
Статус: √ проверено
Размер: 4.75 GB
Как cкачать? Как скачать Пассажиры через торрент | UTorrent

% Раздел Тема Автор DL S | L
Ultra HD (UHD: 2K, 4K, 8K) — видео сверхвысокой чёткости [ 55.6 GB ] Пассажиры / Passengers [2016 UHD Blu-Ray 2160p] DUB [] bober100 Скачать
2 | 0
Ultra HD (UHD: 2K, 4K, 8K) — видео сверхвысокой чёткости [ 50.31 GB ] Пассажиры / Passengers [2016 UHD BDRemux 2160p] 2xAVO+2xDUB [] bober100 Скачать
1 | 0
Фильмы 2016 [DVDrip, WEB-DLRip, HDrip] (DUB, MVO) [ 2.19 GB ] Пассажиры / Passengers [2016 HDRip-AVC] DUB [] от ExKinoRay Enigma2010 Скачать
1 | 0
# Ultra HD (UHD: 2K, 4K, 8K) — видео сверхвысокой чёткости [ 22.84 GB ] Пассажиры / Passengers [2016 UHD WEBRip 2160p] [USA Transfer] 2xDUB [] bober100 Скачать
1 | 0
Фильмы 2016 [DVDrip, WEB-DLRip, HDrip] (DUB, MVO) [ 3.19 GB ] Пассажиры / Passengers [2016 BDRip-AVC] 2xDUB [] bober100 Скачать
1 | 0

28-11-2019 20:33  

Отключить всю рекламу на сайте

26-03-2017 15:02 Пассажиры Скачать торрент  

1080 будет?pb.wtf



07-04-2017 14:24 Пассажиры Скачать торрент  

изгой один: звездные войны в 60 фпс будут?pb.wtf



07-04-2017 18:51 Пассажиры Скачать торрент  

FabRyo, Будет заказ, сделаю.pb.wtf



08-04-2017 13:39 Пассажиры Скачать торрент  

а фильмы, которые собирают свыше 1 лярда, не уходят автоматически на переработку в 60 фпс?)pb.wtf



08-04-2017 14:37 Пассажиры Скачать торрент  

Спасибо за раздачу.
Неплохой фильм.
К качеству не придерёшься.pb.wtf



    Дорогой пользователь! Огромная просьба, поблагодарите релизера, оцените раздачу и оставьте свои комментарий, если Вы скачали Пассажиры через торрент бесплатно! Внесите свою лепту в развитие PiratBit!
    Комментировать посты могут только пользователи прошедшие не сложную регистрацию
    Показать сообщения:    

    Пассажиры через торрент
    Скачать бесплатно Пассажиры
    Пассажиры скачать торрент
    Пассажиры смотреть онлайн
    Cкачать фильм Пассажиры бесплатно
    Пассажиры скачать торрент в хорошем качестве
    Пассажиры смотреть онлайн бесплатно в хорошем качестве


    Вы не можете начинать темы
    Вы не можете отвечать на сообщения
    Вы не можете редактировать свои сообщения
    Вы не можете удалять свои сообщения
    Вы не можете голосовать в опросах
    Вы не можете прикреплять файлы к сообщениям
    Вы можете скачивать файлы