2 сезон

iTunes

MVO

1

2 сезон

iTunes

iTunes

1 сезон

RePack

30

Новинка

ВАЖНО

ИГРА 18+

pack

RePack

MK11
pack

Легкие деньги

RePack

jed

RePack

fifa19

RePack

RDR2

RePack

NEED FOR SPEED™ PAYBACK

4 сезон

9 сезон

Бесстыжие 9 сезон

Все сериалы

все сериалы на PB.wtf

RePack

FAR CRY 5

Anonymous, доброе утро, мы не успеваем собрать деньги на оплату серверов за декабрь и январь, помогите нам пожалуйста в это трудное время. В качестве благодарности мы отключим Вам всю рекламу на сайте (укажите свой ник в строку Ваше имя)!

×
  
Magnet ссылка

Боке / Bokeh (Geoffrey Orthwein, Эндрю Салливан) [2017 г., фантастика, драма, WEB-DLRip, Любительский (многоголосый) ["Синема УС"] ] pb.wtf

Боке через торрент pb.wtf

Размер: 1.37 GB | Добавлен: 3 года 9 мес. назад | Торрент скачан:452 раза
Скачать  

26-03-2017 21:49 Боке Скачать торрент  

Боке / Bokeh
Год выпуска: 2017
Страна: Исландия, США / Verge Pictures, Vintage Pictures, Zealous Pictures
Жанр: фантастика, драма
Продолжительность: 01:33:13
Перевод: Любительский (многоголосый) ["Синема УС"]
Субтитры: нет

Режиссер: Geoffrey Orthwein, Эндрю Салливан

rating

В ролях: Майка Монро, Мэтью О’Лири, Аднар Йоунссон, Гуннар Хельгасон, Берглинд Роус Сигюрдардоуттир

Описание: На романтическом отдыхе в Исландии молодая американская пара однажды утром просыпается и понимает, что все люди на Земле исчезли.

Качество: WEB-DLRip
Формат: AVI
Видео кодек: XviD
Аудио кодек: AC3
Видео: 720x304 (2.37:1), 23.976 fps, XviD build 50 ~1705 kbps avg, 0.33 bit/pixel
Аудио: 48 kHz, AC3 Dolby Digital, 2/0 (L,R) ch, ~384 kbps
Дополнительно:Есть реклама.




General
Complete name : H:\релизы.торрентфайл\Bokeh.2017.P.WEB-DLRip.14OOMB_KOSHARA.avi
Format : AVI
Format/Info : Audio Video Interleave
File size : 1.37 GiB
Duration : 1h 33mn
Overall bit rate : 2 099 Kbps
Writing application : VirtualDubMod 1.5.10.2 (build 2540/release)
Writing library : VirtualDubMod build 2540/release

Video
ID : 0
Format : MPEG-4 Visual
Format profile : Advanced Simple@L5
Format settings, BVOP : 2
Format settings, QPel : No
Format settings, GMC : No warppoints
Format settings, Matrix : Default (MPEG)
Codec ID : XVID
Codec ID/Hint : XviD
Duration : 1h 33mn
Bit rate : 1 706 Kbps
Width : 720 pixels
Height : 304 pixels
Display aspect ratio : 2.35:1
Frame rate : 23.976 fps
Color space : YUV
Chroma subsampling : 4:2:0
Bit depth : 8 bits
Scan type : Progressive
Compression mode : Lossy
Bits/(Pixel*Frame) : 0.325
Stream size : 1.11 GiB (81%)
Writing library : XviD 1.2.1 (UTC 2008-12-04)

Audio
ID : 1
Format : AC-3
Format/Info : Audio Coding 3
Mode extension : CM (complete main)
Format settings, Endianness : Big
Codec ID : 2000
Duration : 1h 33mn
Bit rate mode : Constant
Bit rate : 384 Kbps
Channel(s) : 2 channels
Channel positions : Front: L R
Sampling rate : 48.0 KHz
Bit depth : 16 bits
Compression mode : Lossy
Stream size : 256 MiB (18%)
Alignment : Split accross interleaves
Interleave, duration : 42 ms (1.00 video frame)
Interleave, preload duration : 500 ms

pb.wtf



Скачать Боке через торрент http://i91.fastpic.ru/big/2017/0326/08/7bfc9916d33d97ef808871061b2c6608.jpg Скачать фильм Боке через торрент бесплантно в хорошем качестве Описание: На романтическом отдыхе в Исландии молодая американская пара однажды утром просыпается и понимает, что все люди на Земле ... 8.3 10 15
Торрент: Зарегистрирован [2017-03-26 21:49] · скачан: 452 раз
Статус: T временная
Размер: 1.37 GB
Как cкачать? Как скачать Боке через торрент | UTorrent

% Раздел Тема Автор DL S | L
Порно фильмы с русским переводом [ 7.8 GB ] в Бока Чикa / Boca Chica Blues [2012 Feature European Anal DP A2M IR HDTV 1080p] [Rus] sheker187 Скачать
1 | 1
Порно фильмы с русским переводом [ 901 MB ] в Бока Чикa / Boca Chica Blues [2010 Feature] sheker187 Скачать
1 | 0
Action FPS (1st Person) [ 11.26 GB ] BioShock Infinite + 2 DLC2013 [Repack RUEN Action Shooter] White Smoke Скачать
1 | 0
Порно фильмы с сюжетом [ 848 MB ] Boca Chica Blues / Бока Чика Блюз [2010 Feature Straight Oral Anal DP DVDRip] Наслаждайтесь красивым итальянским порно от маэстро Романьоли Shmel Скачать
1 | 0

28-11-2019 20:33  

Отключить всю рекламу на сайте

28-03-2017 10:54 Боке Скачать торрент  

алё?! а что значит название фильмa?pb.wtf



07-04-2017 15:26 Боке Скачать торрент  

    Дорогой пользователь! Огромная просьба, поблагодарите релизера, оцените раздачу и оставьте свои комментарий, если Вы скачали Боке через торрент бесплатно! Внесите свою лепту в развитие PiratBit!
    Комментировать посты могут только пользователи прошедшие не сложную регистрацию
    Показать сообщения:    

    Боке через торрент
    Скачать бесплатно Боке
    Боке скачать торрент
    Боке смотреть онлайн
    Cкачать фильм Боке бесплатно
    Боке скачать торрент в хорошем качестве
    Боке смотреть онлайн бесплатно в хорошем качестве


    Вы не можете начинать темы
    Вы не можете отвечать на сообщения
    Вы не можете редактировать свои сообщения
    Вы не можете удалять свои сообщения
    Вы не можете голосовать в опросах
    Вы не можете прикреплять файлы к сообщениям
    Вы можете скачивать файлы