2 сезон

iTunes

1 сезон

1

iTunes

iTunes

iTunes

1 сезон

RePack

30

ИГРА 18+

pack

ВАЖНО

!!Акция!!

Alien_RageХит недели

RePack

MK11
pack

Забери бонус

RePack

jed

!!Акция!!

Alien_Rage

RePack

fifa19

RePack

Assassins Creed: Odyssey

RePack

NEED FOR SPEED™ PAYBACK

4 сезон

9 сезон

Бесстыжие 9 сезон

Все сериалы

все сериалы на PB.wtf

RePack

FAR CRY 5
  

Выжить любой ценой / Сезон 1 / Серия 1-12 из 12 (Богдан Дробязко) [2017 г., Боевик, HDTVRip] pb.wtf

Выжить любой ценой через торрент pb.wtf

Размер: 7.08 GB | Добавлен: 3 года 6 мес. назад | Торрент скачан:283 раза
Скачать  

27-03-2017 22:20 Выжить любой ценой Скачать торрент  

Выжить любой ценой / Сезон 1 / Серия 1- 12 из 12
Год выпуска: 2017
Страна: Россия, Триикс медиа
Жанр: Боевик
Продолжительность: 12 х ~ 00:44:00
Субтитры: нет

Режиссер: Богдан Дробязко

В ролях: Илья Шакунов, Александр Фисенко, Мария Шумакова, Денис Пьянов, Владимир Богданов, Александр Кудренко, Марина Доможирова, Павел Гончаров, Роман Агеев, Алексей Нилов, Елена Любимова, Никита Плащевский, Геннадий Свирь, Андрей Лёвин, Виктор Чупров, Сергей Воробьёв, Олег Хамитов

Описание: В тихом таёжном городке процветает нелегальный золотой прииск. Им управляет местный бизнесмен Мотыль вместе с помощником Степаном, который мечтает потеснить босса. Драгметалл с их прииска уходит за границу, что вскоре привлекает внимание спецслужб. В тайгу отправляются два агента. Один втирается в доверие к Степану, а другой присоединяется к группе туристов, которые приехали на курсы выживания. Обучение проводит Юрий Галанов, бывший сотрудник ГРУ, отошедший от дел после неудачной спецоперации. Под видом туриста-экстремала разведчик должен узнать все о прошлом Галанова и его дружбе с Мотылём. Галанов собирает группу в тайгу вместе со своим сослуживцем Максимом Сомовым. Но урокам выживания в дикой природе мешает падение вертолёта с золотом на борту. За заветный кейс со слитками разворачивается нешуточная борьба, которая не обойдется без жертв, предательств и любви.

Качество: HDTVRip
Формат: AVI
Видео кодек: XviD
Аудио кодек: AC3
Видео: XviD, ~ 1551 kbps, 720x400,25.000 fps
Аудио#1: AC3, 2 ch, 192 kbps,48.0 KHz



General
Complete name : H:\релизы.торрентфайл\Vyzit.liuboj.cenoj.2016.HDTVRip.Files-x\01.Vyzit.liuboj.cenoj.2016.HDTVRip.Files-x.avi
Format : AVI
Format/Info : Audio Video Interleave
File size : 600 MiB
Duration : 47mn 52s
Overall bit rate : 1 753 Kbps
Writing application : VirtualDubMod 1.5.10.3 | www.virtualdub-fr.org || (build 2550/release)
Writing library : VirtualDubMod build 2550/release

Video
ID : 0
Format : MPEG-4 Visual
Format profile : Advanced Simple@L5
Format settings, BVOP : 1
Format settings, QPel : No
Format settings, GMC : No warppoints
Format settings, Matrix : Custom
Codec ID : XVID
Codec ID/Hint : XviD
Duration : 47mn 52s
Bit rate : 1 551 Kbps
Width : 720 pixels
Height : 400 pixels
Display aspect ratio : 16:9
Frame rate : 25.000 fps
Color space : YUV
Chroma subsampling : 4:2:0
Bit depth : 8 bits
Scan type : Progressive
Compression mode : Lossy
Bits/(Pixel*Frame) : 0.215
Stream size : 531 MiB (88%)
Writing library : XviD 73

Audio
ID : 1
Format : AC-3
Format/Info : Audio Coding 3
Mode extension : CM (complete main)
Format settings, Endianness : Big
Codec ID : 2000
Duration : 47mn 52s
Bit rate mode : Constant
Bit rate : 192 Kbps
Channel(s) : 2 channels
Channel positions : Front: L R
Sampling rate : 48.0 KHz
Bit depth : 16 bits
Compression mode : Lossy
Stream size : 65.7 MiB (11%)
Alignment : Split accross interleaves
Interleave, duration : 40 ms (1.00 video frame)
Interleave, preload duration : 500 ms

Внимание! Раздача ведётся путём добавления новых серий; при каждом добавлении создётся новый торрент. Чтобы начать докачку новой серии, пользователям необходимо сделать следующее:
  • Остановить скачивание,
  • Удалить старый торрент у себя из клиента (старые серии удалять не надо),
  • Скачать новый торрент и запустить его у себя в клиенте вместо старого, при этом указать клиенту путь в старую папку куда и должно происходить скачивание новых серий.
Ваш клиент при этом должен произвести хеширование (проверку) старой папки (если не производит сам - помогите ему сделать это), и будет докачивать только те серии которых у вас ещё нет. Старые серии при этом не удаляются, а продолжают раздаваться!

Eсли вы уже удалили старые серии, то предотвратить повторную закачку старых серий можно, отжав галочку в соответсвующих местах при запуске нового торрента. По возможности, желательно не удалять старые серии как можно дольше чтобы релизёр не столько продолжал раздавать старые серии, а смог сконцентрироваться на новых.
pb.wtf



Скачать Выжить любой ценой через торрент http://pic1.kartinco.top/images/11/hzlgg.jpg Скачать фильм Выжить любой ценой через торрент бесплантно в хорошем качестве Описание: В тихом таёжном городке процветает нелегальный золотой прииск. Им управляет местный бизнесмен Мотыль вместе с помощником ... 8.5 10 16
Торрент: Зарегистрирован [2017-04-01 08:29] · скачан: 283 раз
Статус: √ проверено
Размер: 7.08 GB
Как cкачать? Как скачать Выжить любой ценой через торрент | qTorrent

% Раздел Тема Автор DL S | L
Наши сериалы [ 7.56 GB ] Выжить любой ценой / Сезон 1 / 1-12 серии из 12 [2017 SATRip] bober100 Скачать
1 | 0


Последний раз редактировалось: oleg8 (2017-04-01 08:29), всего редактировалось 3 раз(а)

28-11-2019 20:33  

Отключить всю рекламу на сайте

29-03-2017 02:51 Выжить любой ценой Скачать торрент  

добавил 3-4 серии.pb.wtf



30-03-2017 02:30 Выжить любой ценой Скачать торрент  

добавил 5-6 серии.pb.wtf



30-03-2017 17:11 Выжить любой ценой Скачать торрент  

А этот сериал точно 17 года? Что то по описанию мне кажется, что я уже его смотрел!!!
Уточните пожалуйстаpb.wtf



31-03-2017 05:40 Выжить любой ценой Скачать торрент  

Kobik писал(а):

А этот сериал точно 17 года? Что то по описанию мне кажется, что я уже его смотрел!!!
Уточните пожалуйста

Уточняю - https://www.kinopoisk.ru/film/989172/
Добавил 7-8 серии.pb.wtf



31-03-2017 07:58 Выжить любой ценой Скачать торрент  

спс за трудыpb.wtf



01-04-2017 08:35 Выжить любой ценой Скачать торрент  

весь сезон.pb.wtf



01-04-2017 16:39 Выжить любой ценой Скачать торрент  

хороший фильм однакоpb.wtf



01-04-2017 16:39 Выжить любой ценой Скачать торрент  

и кончается положительноpb.wtf



    Дорогой пользователь! Огромная просьба, поблагодарите релизера, оцените раздачу и оставьте свои комментарий, если Вы скачали Выжить любой ценой через торрент бесплатно! Внесите свою лепту в развитие PiratBit!
    Комментировать посты могут только пользователи прошедшие не сложную регистрацию
    Показать сообщения:    

    Выжить любой ценой через торрент
    Скачать бесплатно Выжить любой ценой
    Выжить любой ценой скачать торрент
    Выжить любой ценой смотреть онлайн
    Cкачать фильм Выжить любой ценой бесплатно
    Выжить любой ценой скачать торрент в хорошем качестве
    Выжить любой ценой смотреть онлайн бесплатно в хорошем качестве


    Вы не можете начинать темы
    Вы не можете отвечать на сообщения
    Вы не можете редактировать свои сообщения
    Вы не можете удалять свои сообщения
    Вы не можете голосовать в опросах
    Вы не можете прикреплять файлы к сообщениям
    Вы можете скачивать файлы