Ссылка на приватное зеркало нашего сайта всего за 1$. Внимание количество ограничено!!!

2 сезон

iTunes

1 сезон

1

iTunes

iTunes

iTunes

1 сезон

RePack

30

ИГРА 18+

pack

ВАЖНО

!!Акция!!

Alien_RageХит недели

RePack

MK11
pack

Забери бонус

RePack

jed

!!Акция!!

Alien_Rage

RePack

fifa19

RePack

Assassins Creed: Odyssey

RePack

NEED FOR SPEED™ PAYBACK

4 сезон

9 сезон

Бесстыжие 9 сезон

Все сериалы

все сериалы на PB.wtf

RePack

FAR CRY 5
  

Жизненная сила / Lifeforce (Тоуб Хупер) [1985, ужасы, фантастика, боевик, BDRip 1080p] 2 MVO+3 AVO pb.wtf

Жизненная сила через торрент pb.wtf

Размер: 9.29 GB | Добавлен: 3 года 6 мес. назад | Торрент скачан:38 раз
Скачать  

28-03-2017 06:34 Жизненная сила Скачать торрент  

Жизненная сила / Lifeforce

Год выпуска: 1985
Страна: Великобритания, США
Жанр: ужасы, фантастика, боевик, триллер

Продолжительность: 01:56:15
Перевод: Профессиональный (многоголосый)
Авторский (одноголосый)
Оригинальный
Режиссер: Тоуб Хупер
В ролях: Стив Рейлсбэк (Col. Tom Carlsen), Питер Фёрт (Col. Colin Caine), Фрэнк Финлей (Dr. Hans Fallada), Матильда Мэй (Space Girl), Патрик Стюарт (Dr. Armstrong), Майкл Гозард (Dr. Bukovsky), Николас Болл (Roger Derebridge), Обри Моррис (Sir Percy Heseltine), Нэнси Пол (Ellen Donaldson), Джон Хэллам (Lamson), Джон Кигэн (Guard), Крис Джаггер (First Vampire)
Описание:
Космическая экспедиция исследует комету Галлея и натыкается на новую форму разумной жизни - нечто вроде космических вампиров, вместо крови черпающих энергию из своих жертв. Забрав этих чудовищ в образах очень красивой обнаженной женщины и двух мужчин на борт, космонавты совершили страшную ошибку. Мало того, что все они, кроме Рэйлсбэка погибли, вампиры проникли на Землю, где начали массовую заготовку жизненной силы, забирая ее у людей, превращавшихся в нечто вроде зомби. Все это напоминает конец света.
Рейтинг:

MPAA: R - Лицам до 17 лет обязательно присутствие взрослого
Качество: BDRip 1080p
Формат: MKV
Видео: AVC, 1920x816 (2.35:1), 8273 kbps, 23,976 fps, 0,220 bpp
Аудио №1: русский / AC3 / 2.0 / 48 kHz / 192 kbps / |MVO SDI Media|
Аудио №2: русский / AC3 / 2.0 / 48 kHz / 192 kbps / |DVO Петербург Пятый канал|
Аудио №3: русский / AC3 / 5.1 / 48 kHz / 448 kbps / |AVO Гаврилов|
Аудио №4: русский / AC3 / 5.1 / 48 kHz / 448 kbps / |AVO Визгунов|
Аудио №5: русский / AC3 / 5.1 / 48 kHz / 384 kbps / |AVO Ю.Сербин|
Аудио №6: английский / DTS / 5.1 / 48 kHz / 1509 kbps / 24 bit
Навигация по главам: есть

General
Unique ID : 246159888823075083117052499637353292161 (0xB930AB8B9E00701CA60F51F70CDBA181)
Complete name : D:\Proba\Lifeforce.1985.Directors.Cut.1080p.BluRay.x264-HD4U\Lifeforce.1985.1080p.5хRus.mkv
Format : Matroska
Format version : Version 4 / Version 2
File size : 9.29 GiB
Duration : 1 h 56 min
Overall bit rate : 11.4 Mb/s
Encoded date : UTC 2017-03-27 06:56:30
Writing application : mkvmerge v10.0.0 ('To Drown In You') 64bit
Writing library : libebml v1.3.4 + libmatroska v1.4.5

Video
ID : 1
Format : AVC
Format/Info : Advanced Video Codec
Format profile : High@L4.1
Format settings, CABAC : Yes
Format settings, ReFrames : 5 frames
Codec ID : V_MPEG4/ISO/AVC
Duration : 1 h 56 min
Bit rate : 8 273 kb/s
Width : 1 920 pixels
Height : 816 pixels
Display aspect ratio : 2.35:1
Frame rate mode : Constant
Frame rate : 23.976 FPS
Color space : YUV
Chroma subsampling : 4:2:0
Bit depth : 8 bits
Scan type : Progressive
Bits/(Pixel*Frame) : 0.220
Stream size : 6.71 GiB (72%)
Title : X264
Writing library : x264 core 133 r2334 a3ac64b
Encoding settings : cabac=1 / ref=5 / deblock=1:0:0 / analyse=0x3:0x133 / me=umh / subme=7 / psy=1 / psy_rd=1.00:0.00 / mixed_ref=1 / me_range=16 / chroma_me=1 / trellis=1 / 8x8dct=1 / cqm=0 / deadzone=21,11 / fast_pskip=0 / chroma_qp_offset=-2 / threads=18 / lookahead_threads=3 / sliced_threads=0 / nr=0 / decimate=1 / interlaced=0 / bluray_compat=0 / constrained_intra=0 / bframes=3 / b_pyramid=2 / b_adapt=1 / b_bias=0 / direct=1 / weightb=1 / open_gop=0 / weightp=2 / keyint=250 / keyint_min=23 / scenecut=40 / intra_refresh=0 / rc_lookahead=40 / rc=2pass / mbtree=1 / bitrate=8273 / ratetol=1.0 / qcomp=0.60 / qpmin=0 / qpmax=69 / qpstep=4 / cplxblur=20.0 / qblur=0.5 / ip_ratio=1.40 / aq=1:1.00
Language : English
Default : Yes
Forced : No

Audio #1
ID : 2
Format : AC-3
Format/Info : Audio Coding 3
Mode extension : CM (complete main)
Format settings, Endianness : Big
Codec ID : A_AC3
Duration : 1 h 56 min
Bit rate mode : Constant
Bit rate : 192 kb/s
Channel(s) : 2 channels
Channel positions : Front: L R
Sampling rate : 48.0 kHz
Frame rate : 31.250 FPS (1536 spf)
Compression mode : Lossy
Stream size : 160 MiB (2%)
Title : MVO SDI Media
Language : Russian
Default : Yes
Forced : No

Audio #2
ID : 3
Format : AC-3
Format/Info : Audio Coding 3
Mode extension : CM (complete main)
Format settings, Endianness : Big
Codec ID : A_AC3
Duration : 1 h 56 min
Bit rate mode : Constant
Bit rate : 192 kb/s
Channel(s) : 2 channels
Channel positions : Front: L R
Sampling rate : 48.0 kHz
Frame rate : 31.250 FPS (1536 spf)
Compression mode : Lossy
Stream size : 160 MiB (2%)
Title : DVO Петербург Пятый канал
Language : Russian
Default : No
Forced : No

Audio #3
ID : 4
Format : AC-3
Format/Info : Audio Coding 3
Mode extension : CM (complete main)
Format settings, Endianness : Big
Codec ID : A_AC3
Duration : 1 h 56 min
Bit rate mode : Constant
Bit rate : 448 kb/s
Channel(s) : 6 channels
Channel positions : Front: L C R, Side: L R, LFE
Sampling rate : 48.0 kHz
Frame rate : 31.250 FPS (1536 spf)
Compression mode : Lossy
Stream size : 372 MiB (4%)
Title : AVO Гаврилов
Language : Russian
Default : No
Forced : No

Audio #4
ID : 5
Format : AC-3
Format/Info : Audio Coding 3
Mode extension : CM (complete main)
Format settings, Endianness : Big
Codec ID : A_AC3
Duration : 1 h 56 min
Bit rate mode : Constant
Bit rate : 448 kb/s
Channel(s) : 6 channels
Channel positions : Front: L C R, Side: L R, LFE
Sampling rate : 48.0 kHz
Frame rate : 31.250 FPS (1536 spf)
Compression mode : Lossy
Stream size : 372 MiB (4%)
Title : AVO Визгунов
Language : Russian
Default : No
Forced : No

Audio #5
ID : 6
Format : AC-3
Format/Info : Audio Coding 3
Mode extension : CM (complete main)
Format settings, Endianness : Big
Codec ID : A_AC3
Duration : 1 h 56 min
Bit rate mode : Constant
Bit rate : 384 kb/s
Channel(s) : 6 channels
Channel positions : Front: L C R, Side: L R, LFE
Sampling rate : 48.0 kHz
Frame rate : 31.250 FPS (1536 spf)
Compression mode : Lossy
Stream size : 319 MiB (3%)
Title : AVO Ю.Сербин
Language : Russian
Default : No
Forced : No

Audio #6
ID : 7
Format : DTS
Format/Info : Digital Theater Systems
Mode : 16
Format settings, Endianness : Big
Codec ID : A_DTS
Duration : 1 h 56 min
Bit rate mode : Constant
Bit rate : 1 509 kb/s
Channel(s) : 6 channels
Channel positions : Front: L C R, Side: L R, LFE
Sampling rate : 48.0 kHz
Frame rate : 93.750 FPS (512 spf)
Bit depth : 24 bits
Compression mode : Lossy
Stream size : 1.23 GiB (13%)
Title : DTS
Language : English
Default : No
Forced : No

Menu
00:00:00.000 : en:00:00:00.000
00:13:12.959 : en:00:13:12.959
00:27:27.271 : en:00:27:27.271
00:34:53.717 : en:00:34:53.717
00:44:26.289 : en:00:44:26.289
00:53:31.208 : en:00:53:31.208
01:01:22.304 : en:01:01:22.304
01:11:12.894 : en:01:11:12.894
01:19:48.784 : en:01:19:48.784
01:27:45.886 : en:01:27:45.886
01:36:12.767 : en:01:36:12.767
01:43:21.821 : en:01:43:21.821
pb.wtf



Скачать Жизненная сила через торрент http://i2.imageban.ru/out/2017/03/28/0613ca4ea0e5449861cf296970100d01.jpg Скачать фильм Жизненная сила через торрент бесплантно в хорошем качестве Описание: Космическая экспедиция исследует комету Галлея и натыкается на новую форму разумной жизни - нечто вроде космических вампиров, ... 9 10 3
Info! Серебряная раздача, засчитывается только 50% скачанного.
Торрент: Зарегистрирован [2017-03-28 06:34] · скачан: 38 раз
Статус: T временная
Размер: 9.29 GB
Как cкачать? Как скачать Жизненная сила через торрент | qTorrent

28-11-2019 20:33  

Отключить всю рекламу на сайте

28-03-2017 08:53 Жизненная сила Скачать торрент  

.....мне в принципе без разницы, но.......временная?pb.wtf



    Дорогой пользователь! Огромная просьба, поблагодарите релизера, оцените раздачу и оставьте свои комментарий, если Вы скачали Жизненная сила через торрент бесплатно! Внесите свою лепту в развитие PiratBit!
    Комментировать посты могут только пользователи прошедшие не сложную регистрацию
    Показать сообщения:    

    Жизненная сила через торрент
    Скачать бесплатно Жизненная сила
    Жизненная сила скачать торрент
    Жизненная сила смотреть онлайн
    Cкачать фильм Жизненная сила бесплатно
    Жизненная сила скачать торрент в хорошем качестве
    Жизненная сила смотреть онлайн бесплатно в хорошем качестве


    Вы не можете начинать темы
    Вы не можете отвечать на сообщения
    Вы не можете редактировать свои сообщения
    Вы не можете удалять свои сообщения
    Вы не можете голосовать в опросах
    Вы не можете прикреплять файлы к сообщениям
    Вы можете скачивать файлы