2 сезон

iTunes

1 сезон

1

iTunes

iTunes

iTunes

1 сезон

RePack

30

ИГРА 18+

pack

ВАЖНО

!!Акция!!

Alien_RageХит недели

RePack

MK11
pack

Забери бонус

RePack

jed

!!Акция!!

Alien_Rage

RePack

fifa19

RePack

Assassins Creed: Odyssey

RePack

NEED FOR SPEED™ PAYBACK

4 сезон

9 сезон

Бесстыжие 9 сезон

Все сериалы

все сериалы на PB.wtf

RePack

FAR CRY 5
  

Бабетта идёт на войну / Babette s'en va-t-en guerre (Кристиан-Жак) [1959, комедия, военный, BDRip 720p by msltel] DUB pb.wtf

Бабетта идёт на войну через торрент pb.wtf

Раздают: 1 [ 0 KB/s ]
Размер: 3.84 GB | Добавлен: 3 года 7 мес. назад | Торрент скачан:39 раз
Скачать  

28-03-2017 09:35 Бабетта идёт на войну Скачать торрент  

Название: Бабетта идёт на войну
Оригинальное название: Babette s'en va-t-en guerre
Год выпуска: 1959
Страна: Франция
Жанр: комедия, военный
Продолжительность: 01:43:00
Перевод: дублированный

Режиссёр: Кристиан-Жак

В ролях: Брижит Бардо, Жак Шаррье, Роналд Хауард, Майкл Крэймер, Рене Хавар, Мона Гойя, Вивиан Госсе, Робер Берри, Франсуаз Белин, Жак Хиллинг, Жан-Пьер Золя, Франсис Бланш, Пьер Бертен, Ив Венсан, Ноэль Роквер, Ханнес Мессемер, Жан Карме

Описание: В начале Второй мировой войны юная и прелестная француженка Бабетта устраивается на работу в бордель. Но все его обитательницы в спешке собирают пожитки и эвакуируются в Англию. Там Бабетта попадает в штаб британской разведки, уже в качестве секретарши, а потом и во вражеский тыл. Её ждут новая, не менее интересная, работа, новые знакомства и даже любовь. Франция покоряется немцам и освободить Родину может только великолепная Бабетта. И ей удаётся не только очаровать весь боевой состав армии, от рядовых до офицеров, но и внести свой, не совсем обычный, но от этого не менее весомый, вклад в борьбу с фашистами...



Качество: BDRip 720p
Формат: MKV
Видео: MPEG-4 AVC, 5074 Кбит/с, 1280x544, 24 кадра/с
Аудио: русский, AC3, 256 kbps, 2 ch, 48 kHz [дублированный]
Общее
Уникальный идентификатор : 175127511931551159530786279397192113802 (0x83C054F9767C26A697C8D838F5401E8A)
Полное имя : D:\Video\Бабетта идёт на войну.1959.BDRip.720p by msltel.mkv
Формат : Matroska
Версия формата : Version 4 / Version 2
Размер файла : 3,84 Гбайт
Продолжительность : 1 ч. 43 м.
Общий поток : 5331 Кбит/сек
Название фильма : Rip by msltel
Дата кодирования : UTC 2017-03-28 02:34:18
Программа кодирования : mkvmerge v8.2.0 ('World of Adventure') 64bit
Библиотека кодирования : libebml v1.3.1 + libmatroska v1.4.2

Видео
Идентификатор : 1
Формат : AVC
Формат/Информация : Advanced Video Codec
Профиль формата : High@L4.1
Параметр CABAC формата : Да
Параметр ReFrames формата : 9 кадров
Идентификатор кодека : V_MPEG4/ISO/AVC
Продолжительность : 1 ч. 43 м.
Битрейт : 5074 Кбит/сек
Ширина : 1280 пикселей
Высота : 544 пикселя
Соотношение сторон : 2,35:1
Режим частоты кадров : Постоянный
Частота кадров : 24,000 кадра/сек
Цветовое пространство : YUV
Субдискретизация насыщенности : 4:2:0
Битовая глубина : 8 бит
Тип развёртки : Прогрессивная
Бит/(Пиксели*Кадры) : 0.304
Размер потока : 3,65 Гбайт (95%)
Библиотека кодирования : x264 core 146 r2538 121396c
Настройки программы : cabac=1 / ref=9 / deblock=1:-3:-2 / analyse=0x3:0x113 / me=umh / subme=11 / psy=1 / psy_rd=1.00:0.15 / mixed_ref=1 / me_range=32 / chroma_me=1 / trellis=2 / 8x8dct=1 / cqm=0 / deadzone=21,11 / fast_pskip=0 / chroma_qp_offset=-3 / threads=6 / lookahead_threads=1 / sliced_threads=0 / nr=0 / decimate=1 / interlaced=0 / bluray_compat=0 / constrained_intra=0 / bframes=8 / b_pyramid=2 / b_adapt=2 / b_bias=0 / direct=1 / weightb=1 / open_gop=0 / weightp=2 / keyint=230 / keyint_min=23 / scenecut=40 / intra_refresh=0 / rc_lookahead=40 / rc=crf / mbtree=0 / crf=20.0 / qcomp=0.60 / qpmin=0 / qpmax=69 / qpstep=4 / vbv_maxrate=62500 / vbv_bufsize=78125 / crf_max=0.0 / nal_hrd=none / filler=0 / ip_ratio=1.40 / pb_ratio=1.30 / aq=1:1.00
Язык : French
Default : Да
Forced : Нет

Аудио
Идентификатор : 2
Формат : AC-3
Формат/Информация : Audio Coding 3
Параметр Endianness формата : Big
Идентификатор кодека : A_AC3
Продолжительность : 1 ч. 42 м.
Вид битрейта : Постоянный
Битрейт : 256 Кбит/сек
Каналы : 2 канала
Расположение каналов : Front: L R
Частота : 48,0 КГц
Частота кадров : 31,250 кадров/сек (1536 spf)
Битовая глубина : 16 бит
Метод сжатия : С потерями
Размер потока : 188 Мбайт (5%)
Заголовок : DUB
Язык : Russian
ServiceKind/String : Complete Main
Default : Да
Forced : Нет
pb.wtf



Скачать Бабетта идёт на войну через торрент http://hostpic.gq/img/2017-03/28/bxmr9nkt2kjlm6syilatafovo.jpg Скачать фильм Бабетта идёт на войну через торрент бесплантно в хорошем качестве Описание: В начале Второй мировой войны юная и прелестная француженка Бабетта устраивается на работу в бордель. Но все его обитательницы в ... 7.8 10 4
Info! Золотая раздача, скачанное не засчитывается.
Торрент: Зарегистрирован [2017-03-28 09:35] · скачан: 39 раз
Статус: √ проверено
Размер: 3.84 GB
Как cкачать? Как скачать Бабетта идёт на войну через торрент | qTorrent

28-11-2019 20:33  

Отключить всю рекламу на сайте

    Дорогой пользователь! Огромная просьба, поблагодарите релизера, оцените раздачу и оставьте свои комментарий, если Вы скачали Бабетта идёт на войну через торрент бесплатно! Внесите свою лепту в развитие PiratBit!
    Комментировать посты могут только пользователи прошедшие не сложную регистрацию
    Показать сообщения:    

    Бабетта идёт на войну через торрент
    Скачать бесплатно Бабетта идёт на войну
    Бабетта идёт на войну скачать торрент
    Бабетта идёт на войну смотреть онлайн
    Cкачать фильм Бабетта идёт на войну бесплатно
    Бабетта идёт на войну скачать торрент в хорошем качестве
    Бабетта идёт на войну смотреть онлайн бесплатно в хорошем качестве


    Вы не можете начинать темы
    Вы не можете отвечать на сообщения
    Вы не можете редактировать свои сообщения
    Вы не можете удалять свои сообщения
    Вы не можете голосовать в опросах
    Вы не можете прикреплять файлы к сообщениям
    Вы можете скачивать файлы