Ссылка на приватное зеркало нашего сайта всего за 1$. Внимание количество ограничено!!!

2 сезон

iTunes

1 сезон

1

2 сезон

2 сезон

iTunes

1 сезон

RePack

30

Ultimate

ВАЖНО

ИГРА 18+

pack

RePack

MK11
pack

Забери бонус

RePack

jed

!!Акция!!

Alien_Rage

RePack

fifa19

RePack

Assassins Creed: Odyssey

RePack

NEED FOR SPEED™ PAYBACK

4 сезон

9 сезон

Бесстыжие 9 сезон

Все сериалы

все сериалы на PB.wtf

RePack

FAR CRY 5
  

Адам портит всё / Adam Ruins Everything / Сезон: 1 / Серии: 1-26 из 26 + Спецвыпуск (Адам Коновер / Adam Conover) [2015-2016, США, научно-популярная комедия, HDTVRip] DVO (Ozz) pb.wtf

Адам портит всё через торрент pb.wtf

Качают: 1 [ 0 KB/s ]
Размер: 8.33 GB | Добавлен: 3 года 8 мес. назад | Торрент скачан:77 раз
Скачать  

28-03-2017 20:55 Адам портит всё Скачать торрент  

Адам портит всё (сериал 2015 ) / Adam Ruins Everything

Год выпуска: 2015-2016

Выпущено: США, Nice Little Day See, truTV
Жанр: комедия
Продолжительность: 00:21:00
Перевод: Профессиональный (двухголосый закадровый) Ozz
Режиссер: Tim Wilkime , Пол Бриганти , Винсент Пеон
В ролях: Адам Коновер (Adam), Адам Лустик (1920s Waiter), Эмили Аксфорд (Emily), Рея Бутчер (Rhea), Брайан Мерфи (Murph), Элиза Скиннер (Ethel), Тимоти Э. Гудвин (1850's Father), Хейли Норман (Hayley), Зэк Бруссар (Cajun Man), Райан Гоуланд (Angry Husband), Эйвери Монсен (Auto Exec 2), Sasha A. Ali (Sasha)
Описание:
Неприглядная правда о том, что дорого вашему сердцу. Адам Коновер рушит стереотипы, навязанные обществом, телевидением и соседями. Работа, секс, машины, рестораны, терроризм и благотворительность - все знания об этом подвергаются серьезному сомнению.
Рейтинг:
rating
Качество: HDTVRip
Формат: MKV
Видео: MPEG-4 AVC, 720x400 (16:9), 23.976 fps, ~1550 kbps
Аудио: : AC3, 6 ch,, 448 Кбит/с 48 kHz |Ozz|


General
Unique ID : 264231139229363683337785465913850246792 (0xC6C910FAE181647B927B52A42CBCB688)
Complete name : Адам портит все. 1 сезон (2015-2016)\1-01. Adam Ruins Giving.mkv
Format : Matroska
Format version : Version 4 / Version 2
File size : 288 MiB
Duration : 21 min
Overall bit rate : 1 914 kb/s
Encoded date : UTC 2015-12-01 16:22:33 / UTC 2015-12-01 16:22:33
Writing application : Lavf56.36.100
Writing library : Lavf56.36.100 / Lavf56.36.100

Video
ID : 2
Format : MPEG-4 Visual
Format profile : Simple@L1
Format settings, BVOP : No
Format settings, QPel : No
Format settings, GMC : No warppoints
Format settings, Matrix : Default (H.263)
Codec ID : V_MPEG4/ISO/ASP
Codec ID/Info : Advanced Simple Profile
Duration : 21 min
Bit rate : 1 428 kb/s
Width : 720 pixels
Height : 400 pixels
Display aspect ratio : 16:9
Frame rate mode : Constant
Frame rate : 23.976 (24000/1001) FPS
Color space : YUV
Chroma subsampling : 4:2:0
Bit depth : 8 bits
Scan type : Progressive
Compression mode : Lossy
Bits/(Pixel*Frame) : 0.207
Stream size : 214 MiB (75%)
Writing library : Lavc56.41.100
Language : English
Default : Yes
Forced : No

Audio
ID : 1
Format : AC-3
Format/Info : Audio Coding 3
Mode extension : CM (complete main)
Format settings, Endianness : Big
Codec ID : A_AC3
Duration : 21 min
Bit rate mode : Constant
Bit rate : 448 kb/s
Channel(s) : 6 channels
Channel positions : Front: L C R, Side: L R, LFE
Sampling rate : 48.0 kHz
Frame rate : 31.250 FPS (1536 spf)
Bit depth : 32 bits
Compression mode : Lossy
Stream size : 67.3 MiB (23%)
Title : DVO Ozz-tv
Language : Russian
Default : Yes
Forced : No


Подготовлено: Ozz
Озвучка: Катя Галицына и Алексей Серёгин| (1-12 серии) |Алексей Серёгин и Ирина Воронова| (13-26 серии)
Перевод: Trotteville
Производство рипа: Atla22

-- 1 Сезон --
1-01. Которые дают / Adam Ruins Giving (29.09.2015)
1-02. Безопасность / Adam Ruins Securit (06.10.2015)
1-03. Автомобили / Adam Ruins Cars (13.10.2015)
1-04. Криминалисты / Adam Ruins Forensic Science (20.10.2015)
1-05. Рестораны / Adam Ruins Restaurants (27.10.2015)
1-06. Гигиена / Adam Ruins Hygiene (03.11.2015)
1-07. Выборы / Adam Ruins Voting (10.11.2015)
1-08. Работа / Adam Ruins Work (17.11.2015)
1-09. Каникулы / Adam Ruins Summer Fun (01.12.2015)
1-10. Секс / Adam Ruins Sex (08.12.2015)
1-11. Питание / Adam Ruins Nutrition (15.12.2015)
1-12. Похороны / Adam Ruins Death (22.12.2015)
1-13. Голливуд / Adam Ruins Hollywood (23.08.2016)
1-14. Футбол / Adam Ruins Football (30.08.2016)
1-15. Свадьбы / Adam Ruins Weddings (06.09.2016)
1-16. Торговые центры / Adam Ruins Malls (13.09.2016)
1-17. Животные / Adam Ruins Animals (20.09.2016)
1-18. Иммиграция / Adam Ruins Immigration (27.09.2016)
1-19. Жилищный вопрос / Adam Ruins Housing (04.10.2016)
1-20. Таблетки / Adam Ruins Drugs (15.11.2016)
1-21. Места заключения / Adam Ruins Prison (22.11.2016)
1-22. Дикий Запад / Adam Ruins the Wild West (29.11.2016)
1-23. Интернет / Adam Ruins the Internet (06.12.2016)
1-24. Правосудие / Adam Ruins Justice (13.12.2016)
1-25. Рождество / Adam Ruins Christmas (20.12.2016)
1-26. Охрана природы / Adam Ruins Going Green (27.12.2016)

Спецвыпуск:
x-01. Выборы сегодня / The Adam Ruins Everything Election Special (25.10.2016)

pb.wtf



Скачать Адам портит всё через торрент http://i6.imageban.ru/out/2017/03/28/fdfe8f5fbdb8c1e50a27d973c3ccab23.jpg Скачать фильм Адам портит всё через торрент бесплантно в хорошем качестве Описание: Неприглядная правда о том, что дорого вашему сердцу. Адам Коновер рушит стереоы, навязанные обществом, телевидением и ... 10 10 3
Торрент: Зарегистрирован [2017-03-28 20:55] · скачан: 77 раз
Статус: √ проверено
Размер: 8.33 GB
Как cкачать? Как скачать Адам портит всё через торрент | qTorrent

28-11-2019 20:33  

Отключить всю рекламу на сайте

    Дорогой пользователь! Огромная просьба, поблагодарите релизера, оцените раздачу и оставьте свои комментарий, если Вы скачали Адам портит всё через торрент бесплатно! Внесите свою лепту в развитие PiratBit!
    Комментировать посты могут только пользователи прошедшие не сложную регистрацию
    Показать сообщения:    

    Адам портит всё через торрент
    Скачать бесплатно Адам портит всё
    Адам портит всё скачать торрент
    Адам портит всё смотреть онлайн
    Cкачать фильм Адам портит всё бесплатно
    Адам портит всё скачать торрент в хорошем качестве
    Адам портит всё смотреть онлайн бесплатно в хорошем качестве


    Вы не можете начинать темы
    Вы не можете отвечать на сообщения
    Вы не можете редактировать свои сообщения
    Вы не можете удалять свои сообщения
    Вы не можете голосовать в опросах
    Вы не можете прикреплять файлы к сообщениям
    Вы можете скачивать файлы