Ссылка на приватное зеркало нашего сайта всего за 1$. Внимание количество ограничено!!!

2 сезон

iTunes

1 сезон

1

2 сезон

2 сезон

iTunes

1 сезон

RePack

30

Ultimate

ВАЖНО

ИГРА 18+

pack

RePack

MK11
pack

Забери бонус

RePack

jed

!!Акция!!

Alien_Rage

RePack

fifa19

RePack

Assassins Creed: Odyssey

RePack

NEED FOR SPEED™ PAYBACK

4 сезон

9 сезон

Бесстыжие 9 сезон

Все сериалы

все сериалы на PB.wtf

RePack

FAR CRY 5
  

Американская семейка / Modern Family / Сезон: 7 / Серии: 1-22 из 22 (Майкл Спиллер, Джейсон Уайнер) [2015, Комедия, WEB-DLRip] Dub (Paramount Comedy) + Original pb.wtf

Американская семейка через торрент pb.wtf

Размер: 4.61 GB | Добавлен: 3 года 8 мес. назад | Торрент скачан:68 раз
Скачать  

28-03-2017 21:54 Американская семейка Скачать торрент  

Американская семейка / Modern FamilyСЕДЬМОЙ СЕЗОН!
Год выпуска: 2015
Страна: США
Жанр: Комедия
Серии: 1-22 из 22
Продолжительность: ~00:20:00 серия
Перевод: Профессиональный (дублированный) Paramount Comedy
Субтитры: отсутствуют
Режиссёр: Майкл Спиллер, Джейсон Уайнер
В ролях: Эд О’Нил, Джули Боуэн, Ти Баррелл, София Вергара, Джесси Тайлер Фергюсон, Эрик Стоунстрит, Сара Хайланд, Нолан Гоулд
Описание: Как и в предыдущих сезонах сериала «Американская семейка 7 сезон» все события по большей части разворачиваются вокруг отношений главных героев - разновозрастных супругов Джея Притчета (Эд О’Нилл) и его юной жены Глории (София Вергара), однополых партнеров Митчелла (Джесси Тайлер Фергюссон) и Кэмерона (Эрик Стоунстрит), и, конечно классической парочки Клэр (Джули Боуэн) и Фила (Тай Баррел). И, разумеется, не нужно забывать обо всех детях этих трех семей – многочисленные отпрыски всегда готовы добавить перцу даже самой простой ситуации!

Качество: WEB-DLRip
Формат: AVI
Видео кодек: XviD
Аудио кодек: MP3
Видео: 720x400 (1.80:1), 25 fps, XviD build 64 ~1173 kbps avg, 0.16 bit/pixel
Аудио #1: 48 kHz, MPEG Layer 3, 2 ch, ~128.00 kbps avg | Paramount Comedy |
Аудио #2: 48 kHz, MPEG Layer 3, 2 ch, ~128.00 kbps avg | Оригинал |
General
Complete name : C:\Users\Администратор\Desktop\Раздачи\Modern Family Seasons 7 Paramount Comedy\modern.family.s07e01.web-dlrip.rus.eng.paramount.comedy.avi
Format : AVI
Format/Info : Audio Video Interleave
File size : 214 MiB
Duration : 20mn 43s
Overall bit rate : 1 444 Kbps
Writing application : VirtualDubMod 1.5.10.3 | www.virtualdub-fr.org || (build 2550/release)
Writing library : VirtualDubMod build 2550/release
Video
ID : 0
Format : MPEG-4 Visual
Format profile : Advanced Simple@L5
Format settings, BVOP : 2
Format settings, QPel : No
Format settings, GMC : No warppoints
Format settings, Matrix : Default (H.263)
Codec ID : XVID
Codec ID/Hint : XviD
Duration : 20mn 43s
Bit rate : 1 173 Kbps
Width : 720 pixels
Height : 400 pixels
Display aspect ratio : 16:9
Frame rate : 25.000 fps
Color space : YUV
Chroma subsampling : 4:2:0
Bit depth : 8 bits
Scan type : Progressive
Compression mode : Lossy
Bits/(Pixel*Frame) : 0.163
Stream size : 174 MiB (81%)
Writing library : XviD 64

Audio #1
ID : 1
Format : MPEG Audio
Format version : Version 1
Format profile : Layer 3
Mode : Joint stereo
Mode extension : MS Stereo
Codec ID : 55
Codec ID/Hint : MP3
Duration : 20mn 43s
Bit rate mode : Constant
Bit rate : 128 Kbps
Channel(s) : 2 channels
Sampling rate : 48.0 KHz
Compression mode : Lossy
Stream size : 19.0 MiB (9%)
Alignment : Aligned on interleaves
Interleave, duration : 40 ms (1.00 video frame)
Interleave, preload duratio : 504 ms

Audio #2
ID : 2
Format : MPEG Audio
Format version : Version 1
Format profile : Layer 3
Mode : Joint stereo
Mode extension : MS Stereo
Codec ID : 55
Codec ID/Hint : MP3
Duration : 20mn 43s
Bit rate mode : Constant
Bit rate : 128 Kbps
Channel(s) : 2 channels
Sampling rate : 48.0 KHz
Compression mode : Lossy
Stream size : 19.0 MiB (9%)
Alignment : Aligned on interleaves
Interleave, duration : 40 ms (1.00 video frame)
Interleave, preload duratio : 504 ms
Writing library : LAME3.99r
Encoding settings : -m j -V 4 -q 0 -lowpass 17 -b 128
pb.wtf



Скачать Американская семейка через торрент http://i90.fastpic.ru/big/2017/0329/3c/6d6ede6abfbdc440f868fcc0e466d03c.jpg Скачать фильм Американская семейка через торрент бесплантно в хорошем качестве Описание: Как и в предыдущих сезонах сериала «Американская семейка 7 сезон» все события по большей части разворачиваются вокруг отношений ... 10 10 4
Info! Серебряная раздача, засчитывается только 50% скачанного.
Торрент: Зарегистрирован [2017-03-28 21:54] · скачан: 68 раз
Статус: √ проверено
Размер: 4.61 GB
Как cкачать? Как скачать Американская семейка через торрент | qTorrent

28-11-2019 20:33  

Отключить всю рекламу на сайте

    Дорогой пользователь! Огромная просьба, поблагодарите релизера, оцените раздачу и оставьте свои комментарий, если Вы скачали Американская семейка через торрент бесплатно! Внесите свою лепту в развитие PiratBit!
    Комментировать посты могут только пользователи прошедшие не сложную регистрацию
    Показать сообщения:    

    Американская семейка через торрент
    Скачать бесплатно Американская семейка
    Американская семейка скачать торрент
    Американская семейка смотреть онлайн
    Cкачать фильм Американская семейка бесплатно
    Американская семейка скачать торрент в хорошем качестве
    Американская семейка смотреть онлайн бесплатно в хорошем качестве


    Вы не можете начинать темы
    Вы не можете отвечать на сообщения
    Вы не можете редактировать свои сообщения
    Вы не можете удалять свои сообщения
    Вы не можете голосовать в опросах
    Вы не можете прикреплять файлы к сообщениям
    Вы можете скачивать файлы