Доктор Стрэндж

Лицензия

Добыча

Дубляж

Уэнсдэй

1 сезон

Тор

Дубляж

В эфире

Дубляж

Там, где раки поют

MVO

Властелин колец

1 сезон

Deluxe

pack

Рекомендуем

30

Пиратка

ВАЖНО

ВАЖНО

Ghostwire

Пиратка

jed

RePack

nioh2

RePack

RDR2

RePack

NEED FOR SPEED™ PAYBACK

RePack

скачать торрент

Кинопоиск HD

Острые козырьки 6 сезон

6 сезон

FAR CRY 6

RePack

скачать торрент

Лицензия

скачать торрент

MVO

1

1 сезон

скачать торрент

1 сезон

скачать торрент

Лицензия

  

Книга крови (Режиссёрская версия) / Book of Blood (Director's Cut) (Джон Харрисон) [2009, ужасы, триллер, детектив, BDRip 1080p ] Дубляж

Книга крови через торрент pb.wtf

Размер: 10.86 GB | Добавлен: 5 лет 8 мес. назад | Торрент скачан:82 раза
Смотреть онлайн | Скачать   

29-03-2017 05:56 Книга крови Скачать торрент  

Название: Книга крови
Оригинальное название: Book of Blood
Год выпуска: 2009
Страна: Великобритания
Жанр: ужасы, триллер, детектив
Продолжительность: 01:40:27
Перевод: дублированный

Режиссёр: Джон Харрисон

В ролях: Джонас Армстронг, Софи Уорд, Клайв Расселл, Пол Блэр, Романа Аберкромби, Саймон Бэмфорд, Джеймс Уотсон, Даг Брэдли, Гоуэн Калдер, Грэхэм Колкухоун

Описание: Сюжет закручен вокруг специалиста по паранормальным явлениям, который по ходу расследования жуткого убийства обнаруживает мистический дом, из которого души отправляются прямиком в загробное царство... Фильм по мотивам сборников "Книги крови" Клайва Баркера.



Качество: BDRip 1080p
Формат: MKV
Видео: MPEG-4 AVC, 12.5 Mбит/с, 1920x1040, 23,976 кадра/с
Аудио 1: русский, DTS, 1509 kbps, 6 ch, 48 kHz [дублированный]
Аудио 2: английский, DTS, 1509 kbps, 6 ch, 48 kHz [оригинал]
Субтитры: русские
Имеются неименованные главы/чаптеры.
Общее
Уникальный идентификатор : 207376951711651160524934209010549689461 (0x9C03591D966F3F77B873FCCF83788C75)
Полное имя : D:\Video\Книга крови.2009.DirCut.BDRip.1080p by msltel.mkv
Формат : Matroska
Версия формата : Version 4 / Version 2
Размер файла : 10,9 Гбайт
Продолжительность : 1 ч. 40 м.
Общий поток : 15,5 Мбит/сек
Название фильма : Rip by msltel
Дата кодирования : UTC 2017-03-28 10:43:13
Программа кодирования : mkvmerge v8.2.0 ('World of Adventure') 64bit
Библиотека кодирования : libebml v1.3.1 + libmatroska v1.4.2

Видео
Идентификатор : 1
Формат : AVC
Формат/Информация : Advanced Video Codec
Профиль формата : [email protected]
Параметр CABAC формата : Да
Параметр ReFrames формата : 4 кадра
Идентификатор кодека : V_MPEG4/ISO/AVC
Продолжительность : 1 ч. 40 м.
Битрейт : 12,5 Мбит/сек
Ширина : 1920 пикселей
Высота : 1040 пикселей
Соотношение сторон : 1,85:1
Режим частоты кадров : Постоянный
Частота кадров : 23,976 (24000/1001) кадра/сек
Цветовое пространство : YUV
Субдискретизация насыщенности : 4:2:0
Битовая глубина : 8 бит
Тип развёртки : Прогрессивная
Бит/(Пиксели*Кадры) : 0.260
Размер потока : 8,74 Гбайт (80%)
Библиотека кодирования : x264 core 146 r2538 121396c
Настройки программы : cabac=1 / ref=4 / deblock=1:-3:-2 / analyse=0x3:0x113 / me=umh / subme=11 / psy=1 / psy_rd=1.00:0.15 / mixed_ref=1 / me_range=32 / chroma_me=1 / trellis=2 / 8x8dct=1 / cqm=0 / deadzone=21,11 / fast_pskip=0 / chroma_qp_offset=-3 / threads=6 / lookahead_threads=1 / sliced_threads=0 / nr=0 / decimate=1 / interlaced=0 / bluray_compat=0 / constrained_intra=0 / bframes=9 / b_pyramid=2 / b_adapt=2 / b_bias=0 / direct=1 / weightb=1 / open_gop=0 / weightp=2 / keyint=230 / keyint_min=23 / scenecut=40 / intra_refresh=0 / rc_lookahead=40 / rc=crf / mbtree=0 / crf=18.0 / qcomp=0.60 / qpmin=0 / qpmax=69 / qpstep=4 / vbv_maxrate=62500 / vbv_bufsize=78125 / crf_max=0.0 / nal_hrd=none / filler=0 / ip_ratio=1.40 / pb_ratio=1.30 / aq=1:1.00
Язык : English
Default : Да
Forced : Нет

Аудио #1
Идентификатор : 2
Формат : DTS
Формат/Информация : Digital Theater Systems
Режим : 16
Параметр Endianness формата : Big
Идентификатор кодека : A_DTS
Продолжительность : 1 ч. 40 м.
Вид битрейта : Постоянный
Битрейт : 1509 Кбит/сек
Каналы : 6 каналов
Расположение каналов : Front: L C R, Side: L R, LFE
Частота : 48,0 КГц
Частота кадров : 93,750 кадра/сек (512 spf)
Битовая глубина : 16 бит
Метод сжатия : С потерями
Размер потока : 1,06 Гбайт (10%)
Заголовок : Дубляж
Язык : Russian
Default : Да
Forced : Нет

Аудио #2
Идентификатор : 3
Формат : DTS
Формат/Информация : Digital Theater Systems
Режим : 16
Параметр Endianness формата : Big
Идентификатор кодека : A_DTS
Продолжительность : 1 ч. 40 м.
Вид битрейта : Постоянный
Битрейт : 1509 Кбит/сек
Каналы : 6 каналов
Расположение каналов : Front: L C R, Side: L R, LFE
Частота : 48,0 КГц
Частота кадров : 93,750 кадра/сек (512 spf)
Битовая глубина : 16 бит
Метод сжатия : С потерями
Размер потока : 1,06 Гбайт (10%)
Заголовок : original
Язык : English
Default : Нет
Forced : Нет

Текст
Идентификатор : 4
Формат : UTF-8
Идентификатор кодека : S_TEXT/UTF8
Идентификатор кодека/Информация : UTF-8 Plain Text
Продолжительность : 1 ч. 36 м.
Битрейт : 45 бит/сек
ElementCount : 641
Размер потока : 32,1 Кбайт (0%)
Заголовок : русские
Язык : Russian
Default : Нет
Forced : Нет

Меню
00:00:00.000 : :Chapter 01
00:05:48.931 : :Chapter 02
00:12:35.087 : :Chapter 03
00:19:15.445 : :Chapter 04
00:26:21.997 : :Chapter 05
00:31:59.918 : :Chapter 06
00:37:16.692 : :Chapter 07
00:44:12.566 : :Chapter 08
00:49:01.688 : :Chapter 09
00:55:45.091 : :Chapter 10
01:01:58.965 : :Chapter 11
01:09:14.316 : :Chapter 12
01:16:19.700 : :Chapter 13
01:21:43.690 : :Chapter 14
01:27:41.547 : :Chapter 15
01:35:37.314 : :Chapter 16
01:40:26.937 : :Chapter 17



Скачать Книга крови через торрент http://hostpic.gq/img/2017-03/27/refdsfbpahjqm39knzqbrfvm5.jpg Скачать, смотреть онлайн Книга крови бесплантно в хорошем качестве Описание: Сюжет закручен вокруг специалиста по паранормальным явлениям, который по ходу расследования жуткого убийства обнаруживает ... 10 10 3
Info! Золотая раздача, скачанное не засчитывается.
Торрент: Зарегистрирован [2017-03-29 05:56] · скачан: 82 раз
Статус: √ проверено
Размер: 10.86 GB
Как cкачать? Как скачать Книга крови через торрент | UTorrent

28-11-2019 20:33  


Отключить вcю реклaмy на сайте, в т.ч. и в плеере онлайн просмотра!

    Дорогой пользователь! Огромная просьба, поблагодарите релизера, оцените раздачу и оставьте свои комментарий, если Вы скачали Книга крови через торрент бесплатно!!
    Комментировать посты могут только пользователи прошедшие не сложную регистрацию
    Показать сообщения:    


    Книга крови через торрент
    Скачать бесплатно Книга крови
    Книга крови скачать торрент
    Книга крови смотреть онлайн
    Cкачать фильм Книга крови бесплатно
    Книга крови скачать торрент в хорошем качестве
    Книга крови смотреть онлайн бесплатно в хорошем качестве
    Вы не можете начинать темы
    Вы не можете отвечать на сообщения
    Вы не можете редактировать свои сообщения
    Вы не можете удалять свои сообщения
    Вы не можете голосовать в опросах
    Вы не можете прикреплять файлы к сообщениям
    Вы можете скачивать файлы
    Книга крови / Book of Blood [2009, ужасы, триллер, детектив, BDRip 1080p ] Дубляж смотреть онлайн, скачать торрент picoco.icu