Всегда рабочее зеркало без VPN и Proxy просто перед .vidak.icu напиши любое слово или цифру, Пример http://4jbk.vidak.icu

MVO

2 сезон

2 сезон

1

1 сезон

iTunes

2 сезон

13

1 сезон

Deluxe

pack

Рекомендуем

Пиратка

30

ВАЖНО

RePack

MK11

RePack

jed

RePack

fifa19

RePack

RDR2

RePack

NEED FOR SPEED™ PAYBACK

Кинопоиск HD

6 сезон

 Острые козырьки 6 сезон

Все сериалы

все сериалы на PB.wtf

RePack

FAR CRY 5

Anonymous, нам критически не хватает 5601 руб. на оплату серверов и переферии за Апрель, помоги нам пожалуйста, вся надежда только на тебя. В благодарность мы отключим тебе всю рекламу на сайте!

×
  
Magnet ссылка

За пригоршню динамита / Giu la testa / A Fistful of Dynamite (Серджио Леоне) [1971, вестерн, боевик, приключения, BDRip 720p от еnvy / NNNB] MVO, DVO, AVO pb.wtf

За пригоршню динамита через торрент pb.wtf

Качают: 1 [ 0 KB/s ]
Размер: 11.54 GB | Добавлен: 5 лет 1 мес. назад | Торрент скачан:45 раз
Смотреть онлайн За пригоршню динамита | Скачать    Ребята, помогите собрать деньги на оплату серверов!!!

29-03-2017 06:28 За пригоршню динамита Скачать торрент  

Информация о фильме

Русское название: За пригоршню динамита
Оригинальное название: Giu la testa / A Fistful of Dynamite
Год выхода: 1971
Жанр: вестерн, боевик, приключения
Режиссер: Серджио Леоне
Выпущено: Италия, США, Испания
Продолжительность: 02:37:57
Перевод: Профессиональный (двухголосый закадровый), Профессиональный (многоголосый закадровый), Авторский одноголосый
В ролях: Джеймс Коберн, Род Стайгер, Мария Монти, Рик Батталья, Франко Грациози, Ромоло Валли, Антуан Сент-Джон, Вивьенн Чэндлер, Дэвид Уорбек, Джулио Баттиферри, Польдо Бенданди, Омар Бонаро, Рой Босьер, Джон Фредерик, Амато Гарбини, Майкл Харви, Фурио Меникони, Бьяджо Ла Рокка, Наццарено Натале, Винченцо Норвезе, Стефано Оппедизано
Описание:

На бескрайних мексиканских просторах встречаются два «солдата удачи» - развеселый бандит Хуан Миранда, грабящий со своими детишками почтовые дилижансы, и ирландский террорист и бомбометатель Мэллори, мчащийся на своем мотоцикле навстречу опасности и оставляя позади себя воронки от разрывов динамитных шашек. Миранда мечтает использовать «взрывоопасный» талант Мэллори - для ограбления банка. Но вместо банковских сейфов он освобождает политических заложников и становится героем революции. Очень скоро друзьям предстоит забыть радости вольной жизни на полях сражений за свободу мексиканского народа...


Файл

Качество: BDRip 720p (исходник Blu-Ray Remux 1080p)
Формат: MKV
Видео: 1280x546, 9482 Кбит/сек, 24,000 кадр/сек, AVC, x264, High@L4.1, 2.35:1, 0.565 Бит/[Пиксели*Кадры]
Аудио 1: AC-3, 448 Кбит/сек, 6 канала(ов), 48,0 КГц - Двухголосый закадровый, П. Гланц и И. Королева / Русский
Аудио 2: AC-3, 192 Кбит/сек, 2 канала(ов), 48,0 КГц - Многоголосый закадровый, ОРТ / Русский
Аудио 3: AC-3, 192 Кбит/сек, 2 канала(ов), 48,0 КГц - Авторский одноголосый, А. Мудров / Русский
Аудио 4: AC-3, 192 Кбит/сек, 2 канала(ов), 48,0 КГц - Оригинал / Английский
Субтитры: Русские | Полные, Английские | Полные
Форсированные субтитры: Русские
Чаптеры (Главы): Есть






Автор Рипа: Группа:


Format : Matroska
Format version : Version 2
File size : 11.5 GiB
Duration : 2 h 37 min
Overall bit rate : 10.5 Mb/s
Movie name : Giu la testa.(1971).BDRip.720p.[envy]
Encoded date : UTC 2017-03-29 05:19:59
Writing application : mkvmerge v5.8.0 ('No Sleep / Pillow') built on Sep 2 2012 15:37:04
Writing library : libebml v1.2.3 + libmatroska v1.3.0

Video
ID : 1
Format : AVC
Format/Info : Advanced Video Codec
Format profile : High@L4.1
Format settings, CABAC : Yes
Format settings, ReFrames : 10 frames
Muxing mode : Header stripping
Codec ID : V_MPEG4/ISO/AVC
Duration : 2 h 37 min
Bit rate : 9 482 kb/s
Width : 1 280 pixels
Height : 546 pixels
Display aspect ratio : 2.35:1
Frame rate mode : Constant
Frame rate : 24.000 FPS
Color space : YUV
Chroma subsampling : 4:2:0
Bit depth : 8 bits
Scan type : Progressive
Bits/(Pixel*Frame) : 0.565
Stream size : 10.2 GiB (88%)
Title : Giu la testa.(1971).BDRip.720p.[envy]
Writing library : x264 core 148 r2744 b97ae06
Encoding settings : cabac=1 / ref=10 / deblock=1:-3:-3 / analyse=0x3:0x133 / me=umh / subme=11 / psy=1 / psy_rd=1.00:0.00 / mixed_ref=1 / me_range=32 / chroma_me=1 / trellis=2 / 8x8dct=1 / cqm=0 / deadzone=21,11 / fast_pskip=0 / chroma_qp_offset=-2 / threads=12 / lookahead_threads=1 / sliced_threads=0 / nr=0 / decimate=1 / interlaced=0 / bluray_compat=0 / constrained_intra=0 / bframes=5 / b_pyramid=2 / b_adapt=2 / b_bias=0 / direct=3 / weightb=1 / open_gop=0 / weightp=2 / keyint=240 / keyint_min=24 / scenecut=40 / intra_refresh=0 / rc=2pass / mbtree=0 / bitrate=9482 / ratetol=2.0 / qcomp=0.60 / qpmin=0 / qpmax=69 / qpstep=4 / cplxblur=20.0 / qblur=0.5 / ip_ratio=1.40 / pb_ratio=1.30 / aq=1:0.65
Language : Italian
Default : Yes
Forced : No

Audio #1
ID : 2
Format : AC-3
Format/Info : Audio Coding 3
Format settings, Endianness : Big
Muxing mode : Header stripping
Codec ID : A_AC3
Duration : 2 h 37 min
Bit rate mode : Constant
Bit rate : 448 kb/s
Channel(s) : 6 channels
Channel positions : Front: L C R, Side: L R, LFE
Sampling rate : 48.0 kHz
Frame rate : 31.250 FPS (1536 spf)
Bit depth : 16 bits
Compression mode : Lossy
Stream size : 504 MiB (4%)
Title : DVO П.Гланц и И.Королева
Language : Russian
Service kind : Complete Main
Default : Yes
Forced : No

Audio #2
ID : 3
Format : AC-3
Format/Info : Audio Coding 3
Format settings, Endianness : Big
Muxing mode : Header stripping
Codec ID : A_AC3
Duration : 2 h 37 min
Bit rate mode : Constant
Bit rate : 192 kb/s
Channel(s) : 2 channels
Channel positions : Front: L R
Sampling rate : 48.0 kHz
Frame rate : 31.250 FPS (1536 spf)
Bit depth : 16 bits
Compression mode : Lossy
Stream size : 216 MiB (2%)
Title : MVO ОРТ
Language : Russian
Service kind : Complete Main
Default : No
Forced : No

Audio #3
ID : 4
Format : AC-3
Format/Info : Audio Coding 3
Format settings, Endianness : Big
Muxing mode : Header stripping
Codec ID : A_AC3
Duration : 2 h 37 min
Bit rate mode : Constant
Bit rate : 192 kb/s
Channel(s) : 2 channels
Channel positions : Front: L R
Sampling rate : 48.0 kHz
Frame rate : 31.250 FPS (1536 spf)
Bit depth : 16 bits
Compression mode : Lossy
Stream size : 216 MiB (2%)
Title : AVO А.Мудров
Language : Russian
Service kind : Complete Main
Default : No
Forced : No

Audio #4
ID : 5
Format : AC-3
Format/Info : Audio Coding 3
Format settings, Endianness : Big
Muxing mode : Header stripping
Codec ID : A_AC3
Duration : 2 h 37 min
Bit rate mode : Constant
Bit rate : 192 kb/s
Channel(s) : 2 channels
Channel positions : Front: L R
Sampling rate : 48.0 kHz
Frame rate : 31.250 FPS (1536 spf)
Bit depth : 16 bits
Compression mode : Lossy
Stream size : 216 MiB (2%)
Title : Eng
Language : English
Service kind : Complete Main
Default : No
Forced : No

Text #1
ID : 6
Format : UTF-8
Codec ID : S_TEXT/UTF8
Codec ID/Info : UTF-8 Plain Text
Title : Rus forced
Language : Russian
Default : Yes
Forced : Yes

Text #2
ID : 7
Format : UTF-8
Codec ID : S_TEXT/UTF8
Codec ID/Info : UTF-8 Plain Text
Title : Rus full
Language : Russian
Default : No
Forced : No

Text #3
ID : 8
Format : UTF-8
Codec ID : S_TEXT/UTF8
Codec ID/Info : UTF-8 Plain Text
Title : Eng full
Language : English
Default : No
Forced : No

Menu
00:00:00.000 : :Chapter 00
00:11:38.083 : :Chapter 01
00:20:28.458 : :Chapter 02
00:31:29.291 : :Chapter 03
00:43:09.916 : :Chapter 04
00:50:05.166 : :Chapter 05
00:56:28.625 : :Chapter 06
01:08:46.083 : :Chapter 07
01:17:59.916 : :Chapter 08
01:29:17.000 : :Chapter 09
01:35:17.958 : :Chapter 10
01:43:33.416 : :Chapter 11
01:50:06.500 : :Chapter 12
01:58:41.375 : :Chapter 13
02:13:22.791 : :Chapter 14
02:34:41.708 : :Chapter 15

pb.wtf



Скачать За пригоршню динамита через торрент http://img11.lostpic.net/2017/03/29/61154cfc0a6a9f3305733e6f0ecb913c.png Скачать, смотреть онлайн За пригоршню динамита бесплантно в хорошем качестве Описание:На бескрайних мексиканских просторах встречаются два «солдата удачи» - развеселый бандит Хуан Миранда, грабящий со своими ... 9.7 10 3
Info! Золотая раздача, скачанное не засчитывается.
Торрент: Зарегистрирован [2017-03-29 06:28] · скачан: 45 раз
Статус: √ проверено
Размер: 11.54 GB
Как cкачать? Как скачать За пригоршню динамита через торрент | UTorrent

28-11-2019 20:33  

Отключить всю рекламу на сайте

    Дорогой пользователь! Огромная просьба, поблагодарите релизера, оцените раздачу и оставьте свои комментарий, если Вы скачали За пригоршню динамита через торрент бесплатно!
    Комментировать посты могут только пользователи прошедшие не сложную регистрацию
    Показать сообщения:    

    За пригоршню динамита через торрент
    Скачать бесплатно За пригоршню динамита
    За пригоршню динамита скачать торрент
    За пригоршню динамита смотреть онлайн
    Cкачать фильм За пригоршню динамита бесплатно
    За пригоршню динамита скачать торрент в хорошем качестве
    За пригоршню динамита смотреть онлайн бесплатно в хорошем качестве


    Вы не можете начинать темы
    Вы не можете отвечать на сообщения
    Вы не можете редактировать свои сообщения
    Вы не можете удалять свои сообщения
    Вы не можете голосовать в опросах
    Вы не можете прикреплять файлы к сообщениям
    Вы можете скачивать файлы