новый адрес
Мега распродажа FORZA HORIZON 4 ULTIMATE+ВСЕ DLC+ОНЛАЙН всего за 499р. 349 руб. (супер цена). Внимание количество ограничено!!!

iTunes

1+1

iTunes

мы

iTunes

1

iTunes

Чернобыль

iTunes

Ральф против интернета

Лицензия

ПШазам

Лицензия

Оно 2

Лицензия

30
pack

ВАЖНО

!!Акция!!

Alien_RageХит недели

RePack

Resident Evil 21

ИГРА 18+

pack

RePack

jed

!!Акция!!

Alien_Rage

RePack

fifa19

RePack

Assassins Creed: Odyssey

RePack

NEED FOR SPEED™ PAYBACK

3 сезон

9 сезон

Бесстыжие 9 сезон

Все сериалы

все сериалы на PB.wtf

RePack

FAR CRY 5
Ребята, катастрофически не хватает 1900р. для оплаты серверов за Октябрь (всвязи с блокировками трафик упал в 3 раза), 1-2р., выручайте.
  

Лично известен (Эразм Карамян, Степан Кеворков) [1957, СССР, боевик, биография, приключения, DVDRip от AVP Studio] pb.wtf

Лично известен через торрент pb.wtf

Размер: 746 MB | Добавлен: 2 года 7 мес. назад | Торрент скачан:6 раз
Скачать  

29-03-2017 07:33 Лично известен Скачать торрент  

Лично известен
Страна: СССР
Производство: Арменфильм

Жанр: боевик, биография, приключения
Год выпуска: 1957
Продолжительность: 01:40:53

Перевод: Не требуется
Cубтитры: нет
Оригинальная аудиодорожка: русский

Режиссер: Эразм Карамян, Степан Кеворков

В ролях:
Гурген Тонунц, Борис Смирнов, Мария Пастухова, Медея Чахава, Сергей Столяров, Жанна Овнатанян, Артём Карапетян, Борис Свобода, Гурген Ген, Вагарш Вагаршян, Давид Малян, Галина Супрунова, Вахтанг Пирцхалава, Афрасияб Мамедов, Ваче Багратуни, Акакий (Како) Кванталиани, Пётр Малек...
Об актёрах подробней

Описание:
Первый фильм кинотрилогии ("Лично известен", "Чрезвычайное поручение", "Последний подвиг Камо") о революционере-большевике Семёне Аршаковиче Тер-Петросяне, известном под партийным псевдонимом Камо (1882-1922). "Художник революции" - так называл Камо писатель Максим Горький. За его плечами было двадцать лет подпольной работы, шесть арестов, четыре смертных приговора. Он жил и рисковал жизнью "во имя мировой революции". О смелости и изобретательности бесстрашного революционера ходили легенды, благодаря ему выполнялись самые невероятные задания...

Источник: DVD9 R5
Качество видео: DVDRip
Формат видео: AVI

Видео: 688x512 (4:3), 25 fps, XviD ~ 896 kbps avg, 0.144 bit/pixel
Аудио: 48 kHz, MP3 2.0, 128 kbps

Раздача от:
Общее
Полное имя : Lichno.izvesten.1957.DVDRip-745_[New-team]_by_AVP_Studio.avi
Формат : AVI
Формат/Информация : Audio Video Interleave
Размер файла : 746 Мбайт
Продолжительность : 1 ч. 40 м.
Общий поток : 1034 Кбит/сек
Программа кодирования : VirtualDubMod 1.5.10.3 | www.virtualdub-fr.org || (build 2550/release)
Библиотека кодирования : VirtualDubMod build 2550/release

Видео
Идентификатор : 0
Формат : MPEG-4 Visual
Профиль формата : Advanced Simple@L5
Параметр BVOP формата : 1
Параметр QPel формата : Нет
Параметр GMC формата : Без точки перехода
Параметр матрицы формата : Выборочная
Идентификатор кодека : XVID
Идентификатор кодека/Подсказка : XviD
Продолжительность : 1 ч. 40 м.
Битрейт : 896 Кбит/сек
Ширина : 576 пикселей
Высота : 432 пикселя
Соотношение сторон : 4:3
Частота кадров : 25,000 кадров/сек
Цветовое пространство : YUV
Субдискретизация насыщенности : 4:2:0
Битовая глубина : 8 бит
Тип развёртки : Прогрессивная
Метод сжатия : С потерями
Бит/(Пиксели*Кадры) : 0.144
Размер потока : 646 Мбайт (87%)
Библиотека кодирования : XviD 73

Аудио
Идентификатор : 1
Формат : MPEG Audio
Версия формата : Version 1
Профиль формата : Layer 3
Идентификатор кодека : 55
Идентификатор кодека/Подсказка : MP3
Продолжительность : 1 ч. 40 м.
Вид битрейта : Постоянный
Битрейт : 128 Кбит/сек
Каналы : 2 канала
Частота : 48,0 КГц
Метод сжатия : С потерями
Размер потока : 92,4 Мбайт (12%)
Выравнивание : Соединение по промежуткам
Продолжительность промежутка : 40 мс. (1,00 видеокадр)
Время предзагрузки промежутка : 504 мс.
Библиотека кодирования : LAME3.99r
Настройки программы : -m s -V 4 -q 2 -lowpass 17 -b 128
pb.wtf



Скачать Лично известен через торрент http://s019.radikal.ru/i641/1703/ac/6b2f10c12ed7.png Скачать фильм Лично известен через торрент бесплантно в хорошем качестве Описание:Первый фильм кинотрилогии ("Лично известен", "Чрезвычайное поручение", "Последний подвиг Камо") о революционере-большевике Семёне ... 10 10 1
Info! Золотая раздача, скачанное не засчитывается.
Торрент: Зарегистрирован [2017-03-29 07:33] · скачан: 6 раз
Статус: √ проверено
Размер: 746 MB
Как cкачать? Как скачать Лично известен через торрент | qTorrent

% Раздел Тема Автор DL S | L
Кино СССР [ 1.46 GB ] Лично известен [1957 СССР биография DVDRip-AVC от AVP Studio] AVP Studio Скачать
1 | 0
Кино СССР [ 1.46 GB ] Лично известен [1957 СССР биография DVDRip от AVP Studio] AVP Studio Скачать
1 | 0


>> Регистрируемся здесь <<






Отзывы и комментарии о схеме читаем и пишем здесь: ---> Отзывы и комментарии о схеме

Новые благодарочки в телеграм довольных пользователей:
скриншот   скриншот   скриншот   скриншот   скриншот
    Дорогой пользователь! Огромная просьба, поблагодарите релизера, оцените раздачу и оставьте свои комментарий, если Вы скачали Лично известен через торрент бесплатно! Внесите свою лепту в развитие PiratBit!
    Комментировать посты могут только пользователи прошедшие не сложную регистрацию
    Показать сообщения:    

    Лично известен через торрент
    Скачать бесплатно Лично известен
    Лично известен скачать торрент
    Лично известен смотреть онлайн
    Cкачать фильм Лично известен бесплатно
    Лично известен скачать торрент в хорошем качестве
    Лично известен смотреть онлайн бесплатно в хорошем качестве


    Вы не можете начинать темы
    Вы не можете отвечать на сообщения
    Вы не можете редактировать свои сообщения
    Вы не можете удалять свои сообщения
    Вы не можете голосовать в опросах
    Вы не можете прикреплять файлы к сообщениям
    Вы можете скачивать файлы