2 сезон

iTunes

MVO

1

2 сезон

iTunes

iTunes

1 сезон

RePack

30

Ultimate

ВАЖНО

ИГРА 18+

pack

RePack

MK11
pack

Легкие деньги

RePack

jed

RePack

fifa19

RePack

RDR2

RePack

NEED FOR SPEED™ PAYBACK

4 сезон

9 сезон

Бесстыжие 9 сезон

Все сериалы

все сериалы на PB.wtf

RePack

FAR CRY 5

Anonymous, добрый день, мы не успеваем собрать деньги на оплату серверов за декабрь и январь, помогите нам пожалуйста в это трудное время. В качестве благодарности мы отключим Вам всю рекламу на сайте (укажите свой ник в строку Ваше имя)!

×
  
Magnet ссылка

Последний охотник на ведьм / The Last Witch Hunter (Брек Эйснер) [2015, фэнтези, боевик, приключения, UHDVCRip-HEVC 2160p] [DUB] pb.wtf

Последний охотник на ведьм через торрент pb.wtf

Размер: 38.38 GB | Добавлен: 3 года 9 мес. назад | Торрент скачан:21 раз
Скачать  

29-03-2017 17:35 Последний охотник на ведьм Скачать торрент  

Название: Последний охотник на ведьм
Оригинальное название: The Last Witch Hunter
Год выпуска: 2015
Страна: США, Китай, Канада
Жанр: фэнтези, боевик, приключения
Продолжительность: 01:47:16
Перевод: Дублированный
Субтитры: русские, английские
В ролях: Вин Дизель, Роуз Лесли, Элайджа Вуд, Оулавюр Дарри Оулафссон, Рина Оуэн, Юли Энгельбрехт, Майкл Кейн, Джозеф Гилган, Исаак Де Банколе, Майкл Халсли
Режиссёр: Брек Эйснер
Описание: Современный мир скрывает множество секретов, но самым удивительным из них является то, что ведьмы до сих пор живут среди нас. Это злобные сверхъестественные существа, чья цель - наслать на мир смертоносную чуму. Армии охотников на ведьм сражались с ними на протяжении многих веков.
В наши дни остался всего лишь один охотник на ведьм, Колдер, которому однажды удалось убить всемогущую королеву ведьм. Но Колдер еще не знает, что королева воскресла и жаждет отомстить своему убийце...
Источник: ProRes HQ video capture from the UHD Blu-ray
Качество: BDRip 2160p
Формат: MKV
Видео кодек: x265@10bit
Аудио кодек: DTS
Видео: 3840x1596, 23.976 fps, HEVC, HDR, ~47 Mbps, 10bit
Аудио: Rus, 48 kHz/16-bit, DTS-HD MA 5.1, ~1874 kbps | Дубляж
Аудио: Eng, 48 kHz/16-bit, DTS-HD MA 5.1, ~2286 kbps | Оригинал
Навигация по главам: Присутствует
Релиз: ULTRAHDCLUB




Для просмотра HDR-контента необходим телевизор с поддержкой HDR. Просто запишите на usb-накопитель скачанное видео и установите его в ваш ТВ. На обычных дисплеях изображение будет выглядеть неконтрастным и обесцвеченным.

Решение этой проблемы в настоящий момент возможно на PC под ОС Windows, используя плейер, который поддерживает вывод изображение через рендер madvr (http://madvr.com), который может выполнять программную конверсию в цветовое пространство и гамму REC.709.

Мы рекомендуем PotPlayer (http://potplayer.ru) или Media Player Classic Home Cinema (https://mpc-hc.org).

После установки рекомендованных плейеров необходимо отдельно установить madvr. Для этого скачайте с сайта архив, распакуйте его в удобное место и запустите install.bat от учетной записи администратора. После установки папку с содержимым не удалять! Если папку необходимо перенести в другое место, то после переноса необходимо снова запустить install.bat.
Для того, чтобы изображение выводилось посредством madvr, его необходимо выбрать в настройках плейера:






Чтобы попасть в настройки madvr можно запустить madHcCtrl.exe из папки с установленной программой. В трее появится значок, кликнув ПКМ по которому выберите edit madvr settings. В potplayer вызов настроек возможен нажатием на … справа от выбранного madshi video renderer. Также значок будет появляться каждый раз при проигрывании видео.

Полное описание настроек madvr можно найти тут: http://forum.kodi.tv/showthread.php?tid=259188
Для корректного отображения HDR-контента необходимо выполнить эти рекомендации: http://forum.kodi.tv/showthread.php?tid=259188&pid=2238942#pid2238942
Параметр “this display’s peak nits” настраиваете на свое усмотрение. Рекомендуемые значения 120-250. Для наиболее яркой картинки можно установить значение 120, но в этом случае на некоторых видео могут пропадать детали на ярких участках изображения.

!!! Для каждого фильма в теме мы будет давать рекомендации значений, для получения картинки близкой по гамме к BD 1080p.
Negative Format: Codex ARRIRAW (3.4K)
Cinematographic Process: Digital Intermediate (4K) (master format)
Panavision (anamorphic) (source format)
Сохранены оригинальные главы как на Blu-ray.
English DTS:X from Lionsgate disc has channels phase bug, so was chosen sound from German blu-ray.
Рекомендуемые параметры для просмотра: this display’s peak nits: 120.


- H.265/HEVC (High Efficiency Video Coding) - это новый стандарт кодирования видео.
- Стандарт H.265/HEVC является логическим продолжением стандарта H.264/AVC (Advanced Video Coding), и характеризуется более эффективными алгоритмами сжатия, а также поддержкой высокого разрешения вплоть до 8K UHD (8192x4320). Первая версия стандарта H.265 была опубликована в начале 2013 года.
- Рипы в фомате HEVC поддерживается не всеми аппаратными проигрывателями.
- Для корректного воспроизведения может потребоваться обновление ПО.
- Владельцам несовместимого железа просьба не беспокоить, есть альтернативные релизы.
General
Unique ID : 191121473488253057750896220347719130545 (0x8FC8A82954726739965F3C77FFDE9DB1)
Complete name : X:The.Last.Witch.Hunter.2015.2160p.UHD.BluRay.HDR.DTS-HD.MA7.1.x265-ULTRAHDCLUB.mkv
Format : Matroska
Format version : Version 4 / Version 2
File size : 38.4 GiB
Duration : 1 h 47 min
Overall bit rate : 51.2 Mb/s
Movie name : The Last Witch Hunter (2015) - Release for ULTRAHDCLUB
Encoded date : UTC 2017-03-16 14:28:43
Writing application : mkvmerge v9.9.0 ('Pick Up') 64bit
Writing library : libebml v1.3.4 + libmatroska v1.4.5
Cover : Yes
Attachments : cover.jpg

Video
ID : 1
Format : HEVC
Format/Info : High Efficiency Video Coding
Format profile : Main 10@L5@High
Codec ID : V_MPEGH/ISO/HEVC
Duration : 1 h 47 min
Bit rate : 47.0 Mb/s
Width : 3 840 pixels
Height : 1 596 pixels
Display aspect ratio : 2.40:1
Frame rate mode : Constant
Frame rate : 23.976 (24000/1001) FPS
Original frame rate : 23.976 (23976/1000) FPS
Color space : YUV
Chroma subsampling : 4:2:0 (Type 2)
Bit depth : 10 bits
Bits/(Pixel*Frame) : 0.320
Stream size : 35.2 GiB (92%)
Title : The Last Witch Hunter (2015) - Release for ULTRAHDCLUB
Writing library : x265 2.2+2-998d4520d1cf:[Windows][GCC 6.2.0][64 bit] 10bit
Encoding settings : cpuid=1050111 / frame-threads=3 / numa-pools=12 / wpp / no-pmode / no-pme / no-psnr / no-ssim / log-level=2 / input-csp=1 / input-res=3840x1596 / interlace=0 / total-frames=0 / level-idc=0 / high-tier=1 / uhd-bd=0 / ref=1 / no-allow-non-conformance / repeat-headers / annexb / aud / hrd / info / hash=0 / no-temporal-layers / open-gop / min-keyint=23 / keyint=250 / bframes=3 / b-adapt=2 / b-pyramid / bframe-bias=0 / rc-lookahead=40 / lookahead-slices=0 / scenecut=40 / no-intra-refresh / ctu=32 / min-cu-size=8 / no-rect / no-amp / max-tu-size=32 / tu-inter-depth=1 / tu-intra-depth=1 / limit-tu=0 / rdoq-level=2 / signhide / no-tskip / nr-intra=0 / nr-inter=0 / no-constrained-intra / strong-intra-smoothing / max-merge=2 / limit-refs=0 / no-limit-modes / me=2 / subme=7 / merange=57 / temporal-mvp / weightp / weightb / no-analyze-src-pics / no-deblock / no-sao / no-sao-non-deblock / rd=6 / no-early-skip / no-rskip / fast-intra / no-tskip-fast / no-cu-lossless / no-b-intra / rdpenalty=0 / psy-rd=4.00 / psy-rdoq=8.00 / no-rd-refine / analysis-mode=0 / no-lossless / cbqpoffs=0 / crqpoffs=0 / rc=crf / crf=21.7 / qcomp=0.80 / qpstep=1 / stats-write=0 / stats-read=0 / vbv-maxrate=100000 / vbv-bufsize=100000 / vbv-init=0.9 / crf-max=0.0 / crf-min=0.0 / ipratio=1.10 / pbratio=1.00 / aq-mode=3 / aq-strength=1.00 / no-cutree / zone-count=0 / no-strict-cbr / qg-size=32 / no-rc-grain / qpmax=51 / qpmin=0 / sar=0 / overscan=0 / videoformat=5 / range=0 / colorprim=9 / transfer=16 / colormatrix=9 / chromaloc=1 / chromaloc-top=2 / chromaloc-bottom=2 / display-window=0 / max-cll=0,0 / min-luma=0 / max-luma=1023 / log2-max-poc-lsb=8 / vui-timing-info / vui-hrd-info / slices=1 / opt-qp-pps / opt-ref-list-length-pps / no-multi-pass-opt-rps / scenecut-bias=0.05
Language : English
Default : Yes
Forced : No
Color range : Limited
Color primaries : BT.2020
Transfer characteristics : SMPTE ST 2084
Matrix coefficients : BT.2020 non-constant

Audio #1
ID : 2
Format : DTS
Format/Info : Digital Theater Systems
Format profile : MA / Core
Mode : 16
Format settings, Endianness : Big
Codec ID : A_DTS
Duration : 1 h 47 min
Bit rate mode : Variable / Constant
Bit rate : 1 980 kb/s / 1 509 kb/s
Channel(s) : 6 channels
Channel positions : Front: L C R, Side: L R, LFE
Sampling rate : 48.0 kHz
Frame rate : 93.750 FPS (512 spf)
Bit depth : 16 bits
Compression mode : Lossless / Lossy
Stream size : 1.48 GiB (4%)
Title : DTS-HD MA 5.1 @ 1874 kbps - DUB, Blu-ray RUS
Language : Russian
Default : Yes
Forced : No

Audio #2
ID : 3
Format : DTS
Format/Info : Digital Theater Systems
Format profile : MA / Core
Mode : 16
Format settings, Endianness : Big
Codec ID : A_DTS
Duration : 1 h 47 min
Bit rate mode : Variable / Constant
Bit rate : 2 286 kb/s / 1 509 kb/s
Channel(s) : 8 channels / 6 channels
Channel positions : Front: L C R, Side: L R, Back: L R, LFE / Front: L C R, Side: L R, LFE
Sampling rate : 48.0 kHz
Frame rate : 93.750 FPS (512 spf)
Bit depth : 16 bits
Compression mode : Lossless / Lossy
Stream size : 1.71 GiB (4%)
Title : DTS:X 7.1 @ 4158 kbps - Blu-ray US
Language : English
Default : No
Forced : No

Text #1
ID : 4
Format : UTF-8
Codec ID : S_TEXT/UTF8
Codec ID/Info : UTF-8 Plain Text
Duration : 1 h 35 min
Bit rate : 67 b/s
Count of elements : 1035
Stream size : 47.4 KiB (0%)
Language : Russian
Default : No
Forced : No

Text #2
ID : 5
Format : UTF-8
Codec ID : S_TEXT/UTF8
Codec ID/Info : UTF-8 Plain Text
Duration : 1 h 35 min
Bit rate : 39 b/s
Count of elements : 897
Stream size : 27.6 KiB (0%)
Language : English
Default : No
Forced : No

Text #3
ID : 6
Format : UTF-8
Codec ID : S_TEXT/UTF8
Codec ID/Info : UTF-8 Plain Text
Duration : 1 h 37 min
Bit rate : 45 b/s
Count of elements : 1233
Stream size : 32.4 KiB (0%)
Title : SDH
Language : English
Default : No
Forced : No

Menu
00:00:00.000 : en:00:00:00.000
00:08:12.951 : en:00:08:12.951
00:16:49.300 : en:00:16:49.300
00:28:24.786 : en:00:28:24.786
00:37:11.312 : en:00:37:11.312
00:47:32.558 : en:00:47:32.558
00:55:26.198 : en:00:55:26.198
01:00:56.027 : en:01:00:56.027
01:08:25.268 : en:01:08:25.268
01:15:07.169 : en:01:15:07.169
01:25:30.751 : en:01:25:30.751
01:37:51.407 : en:01:37:51.407
pb.wtf



Скачать Последний охотник на ведьм через торрент http://s8.hostingkartinok.com/uploads/images/2017/03/546e86459bc15695e61658b3622d9ae2.jpg Скачать фильм Последний охотник на ведьм через торрент бесплантно в хорошем качестве Описание: Современный мир скрывает множество секретов, но самым удивительным из них является то, что ведьмы до сих пор живут среди нас. Это ... 10 10 1
Торрент: Зарегистрирован [2017-03-29 17:35] · скачан: 21 раз
Статус: T временная
Размер: 38.38 GB
Как cкачать? Как скачать Последний охотник на ведьм через торрент | UTorrent

% Раздел Тема Автор DL S | L
Фильмы (HD 720p, 1080p) (48-60 fps) [ 4.96 GB ] Последний охотник на ведьм / The Last Witch Hunter [2015 BDRip 720p 60fps от еnvy / NNNB] DUB еnvy Скачать
9 | 0
Ultra HD (UHD: 2K, 4K, 8K) — видео сверхвысокой чёткости [ 56.18 GB ] Последний охотник на ведьм / The Last Witch Hunter [2015 UHD BDRemux 2160p] DUB [] + AVO [Дольский] sheker187 Скачать
1 | 0
Ultra HD (UHD: 2K, 4K, 8K) — видео сверхвысокой чёткости [ 49.25 GB ] Последний охотник на ведьм / The Last Witch Hunter [2015 UHD WEBRip 2160p] [USA Transfer] DUB [] bober100 Скачать
1 | 0
Фильмы с авторской озвучкой [ 1.46 GB ] Последний охотник на ведьм / The Last Witch Hunter [2015 BDRip] [AVO] killermax2013 Скачать
1 | 0
Фильмы (HD 720p, 1080p) (48-60 fps) [ 9.63 GB ] Последний охотник на ведьм / The Last Witch Hunter [2015 BDRip 720p by mimok 60fps mimok Скачать
1 | 0
Фильмы 2015 [DVDrip, WEB-DLRip, HDrip] [ 2.17 GB ] Последний охотник на ведьм / The Last Witch Hunter [2015 Китай BDRip-AVC от sokol_ok] DUB sokol_ok Скачать
2 | 0
Фильмы 2015 [DVDrip, WEB-DLRip, HDrip] [ 2.05 GB ] Последний охотник на ведьм / The Last Witch Hunter [2015 WEB DLRip-AVC] $-DRON-$ Скачать
1 | 0

28-11-2019 20:33  

Отключить всю рекламу на сайте

    Дорогой пользователь! Огромная просьба, поблагодарите релизера, оцените раздачу и оставьте свои комментарий, если Вы скачали Последний охотник на ведьм через торрент бесплатно! Внесите свою лепту в развитие PiratBit!
    Комментировать посты могут только пользователи прошедшие не сложную регистрацию
    Показать сообщения:    

    Последний охотник на ведьм через торрент
    Скачать бесплатно Последний охотник на ведьм
    Последний охотник на ведьм скачать торрент
    Последний охотник на ведьм смотреть онлайн
    Cкачать фильм Последний охотник на ведьм бесплатно
    Последний охотник на ведьм скачать торрент в хорошем качестве
    Последний охотник на ведьм смотреть онлайн бесплатно в хорошем качестве


    Вы не можете начинать темы
    Вы не можете отвечать на сообщения
    Вы не можете редактировать свои сообщения
    Вы не можете удалять свои сообщения
    Вы не можете голосовать в опросах
    Вы не можете прикреплять файлы к сообщениям
    Вы можете скачивать файлы