Ссылка на приватное зеркало нашего сайта всего за 1$. Внимание количество ограничено!!!

2 сезон

iTunes

1 сезон

1

2 сезон

2 сезон

iTunes

1 сезон

RePack

30

Новинка

ВАЖНО

ИГРА 18+

pack

RePack

MK11
pack

Забери бонус

RePack

jed

!!Акция!!

Alien_Rage

RePack

fifa19

RePack

Assassins Creed: Odyssey

RePack

NEED FOR SPEED™ PAYBACK

4 сезон

9 сезон

Бесстыжие 9 сезон

Все сериалы

все сериалы на PB.wtf

RePack

FAR CRY 5
  

Призрачная красота / Collateral Beauty (Дэвид Фрэнкел) [2016, драма, BDRemux 1080p] от ExKinoRay / Дубляж / Лицензия pb.wtf

Призрачная красота через торрент pb.wtf

Размер: 26.11 GB | Добавлен: 3 года 7 мес. назад | Торрент скачан:81 раз
Скачать  

30-03-2017 03:23 Призрачная красота Скачать торрент  

Информация о фильме
Название: Призрачная красота
Оригинальное название: Collateral Beauty
Год выхода: 2016
Жанр: Драма
Страна: США
Студия: Anonymous Content, Likely Story, Overbrook Entertainment
Продолжительность: 01:36:39
Перевод: Дублированный | Лицензия
Субтитры: Русские (forced, full), английские (full, SDH, SDH Colored)

Режиссер: Дэвид Фрэнкел

В ролях: Уилл Смит, Эдвард Нортон, Кейт Уинслет, Майкл Пенья, Хелен Миррен, Наоми Харрис, Кира Найтли, Джейкоб Латимор, Энн Дауд, Лиза Колон-Зайас

О фильме:

Главный герой работает в рекламном агентстве Нью-Йорка. Не так давно в его личной жизни произошла трагедия, ввергнувшая его в тяжелейшую депрессию. Коллеги пытаются помочь и разрабатывают нетрадиционный план по возвращению друга обратно на твёрдую почву, однако план срабатывает неожиданным образом.

rating

Качество: BDRemux 1080p
Формат: MKV
Видео: MPEG-4 AVC, 1920x1080, 34.8 Mbit/s, 23.976 fps
Аудио #01: 48 kHz, AC3, 5.1, 640 Kbps | Дублированный |
Аудио #02: 48 kHz, DTS-HD MA, 5.1, 3194 kbps | Оригинал |
General

Unique ID : 179800966278461183701450966281102393762 (0x8744681049E3CB6FB0EA6D415CFD81A2)

Complete name : F:VideoCollateral.Beauty.2016.Lic.BDREMUX.ExKinoRay.1080p.mkv

Format : Matroska

Format version : Version 4 / Version 2

File size : 26.1 GiB

Duration : 1 h 36 min

Overall bit rate mode : Variable

Overall bit rate : 38.7 Mb/s

Encoded date : UTC 2017-03-29 22:48:53

Writing application : mkvmerge v10.0.0 ('To Drown In You') 64bit

Writing library : libebml v1.3.4 + libmatroska v1.4.5

Cover : Yes

Attachments : cover.jpg

Video

ID : 1

Format : AVC

Format/Info : Advanced Video Codec

Format profile : High@L4.1

Format settings, CABAC : Yes

Format settings, ReFrames : 4 frames

Codec ID : V_MPEG4/ISO/AVC

Duration : 1 h 36 min

Bit rate mode : Variable

Bit rate : 34.8 Mb/s

Maximum bit rate : 37.0 Mb/s

Width : 1 920 pixels

Height : 1 080 pixels

Display aspect ratio : 16:9

Frame rate mode : Constant

Frame rate : 23.976 (24000/1001) FPS

Color space : YUV

Chroma subsampling : 4:2:0

Bit depth : 8 bits

Scan type : Progressive

Bits/(Pixel*Frame) : 0.701

Stream size : 23.5 GiB (90%)

Language : English

Default : Yes

Forced : No

Audio #1

ID : 2

Format : AC-3

Format/Info : Audio Coding 3

Mode extension : CM (complete main)

Format settings, Endianness : Big

Codec ID : A_AC3

Duration : 1 h 36 min

Bit rate mode : Constant

Bit rate : 640 kb/s

Channel(s) : 6 channels

Channel positions : Front: L C R, Side: L R, LFE

Sampling rate : 48.0 kHz

Frame rate : 31.250 FPS (1536 spf)

Bit depth : 16 bits

Compression mode : Lossy

Stream size : 442 MiB (2%)

Title : Dub [License]

Language : Russian

Default : Yes

Forced : No

Audio #2

ID : 3

Format : DTS

Format/Info : Digital Theater Systems

Format profile : MA / Core

Mode : 16

Format settings, Endianness : Big

Codec ID : A_DTS

Duration : 1 h 36 min

Bit rate mode : Variable / Constant

Bit rate : 3 194 kb/s / 1 509 kb/s

Channel(s) : 6 channels

Channel positions : Front: L C R, Side: L R, LFE

Sampling rate : 48.0 kHz

Frame rate : 93.750 FPS (512 spf)

Bit depth : 24 bits

Compression mode : Lossless / Lossy

Stream size : 2.16 GiB (8%)

Title : Original

Language : English

Default : No

Forced : No

Text #1

ID : 4

Format : UTF-8

Codec ID : S_TEXT/UTF8

Codec ID/Info : UTF-8 Plain Text

Duration : 1 h 22 min

Bit rate : 1 b/s

Count of elements : 15

Stream size : 861 Bytes (0%)

Title : Forced

Language : Russian

Default : Yes

Forced : No

Text #2

ID : 5

Format : UTF-8

Codec ID : S_TEXT/UTF8

Codec ID/Info : UTF-8 Plain Text

Duration : 1 h 35 min

Bit rate : 98 b/s

Count of elements : 1214

Stream size : 69.0 KiB (0%)

Title : Full

Language : Russian

Default : No

Forced : No

Text #3

ID : 6

Format : UTF-8

Codec ID : S_TEXT/UTF8

Codec ID/Info : UTF-8 Plain Text

Duration : 1 h 30 min

Bit rate : 65 b/s

Count of elements : 1449

Stream size : 43.9 KiB (0%)

Title : Full

Language : English

Default : No

Forced : No

Text #4

ID : 7

Format : UTF-8

Codec ID : S_TEXT/UTF8

Codec ID/Info : UTF-8 Plain Text

Duration : 1 h 30 min

Bit rate : 69 b/s

Count of elements : 1515

Stream size : 46.2 KiB (0%)

Title : SDH

Language : English

Default : No

Forced : No

Text #5

ID : 8

Format : UTF-8

Codec ID : S_TEXT/UTF8

Codec ID/Info : UTF-8 Plain Text

Duration : 1 h 30 min

Bit rate : 74 b/s

Count of elements : 1518

Stream size : 49.7 KiB (0%)

Title : SDH [Colored]

Language : English

Default : No

Forced : No

Menu

00:00:00.000 : en:00:00:00.000

00:10:20.078 : en:00:10:20.078

00:21:30.414 : en:00:21:30.414

00:33:57.118 : en:00:33:57.118

00:42:43.311 : en:00:42:43.311

00:53:07.184 : en:00:53:07.184

01:01:04.327 : en:01:01:04.327

01:08:55.048 : en:01:08:55.048

01:22:15.931 : en:01:22:15.931

01:33:09.626 : en:01:33:09.626
скриншот  скриншот  скриншот  
Релиз от: Автор релиза: pb.wtf



Скачать Призрачная красота через торрент http://s018.radikal.ru/i502/1703/e3/01f2193848b8.jpg Скачать фильм Призрачная красота через торрент бесплантно в хорошем качестве О фильме:Главный герой работает в рекламном агентстве Нью-Йорка. Не так давно в его личной жизни произошла трагедия, ввергнувшая его в ... 10 10 6
Info! Золотая раздача, скачанное не засчитывается.
Торрент: Зарегистрирован [2017-03-30 03:23] · скачан: 81 раз
Статус: √ проверено
Размер: 26.11 GB
Как cкачать? Как скачать Призрачная красота через торрент | qTorrent

% Раздел Тема Автор DL S | L
Фильмы 2016 [DVDrip, WEB-DLRip, HDrip] (DUB, MVO) [ 1.96 GB ] Призрачная красота / Collateral Beauty [2016 BDRip-AVC] - [] от ExKinoRay Enigma2010 Скачать
1 | 0

28-11-2019 20:33  

Отключить всю рекламу на сайте

    Дорогой пользователь! Огромная просьба, поблагодарите релизера, оцените раздачу и оставьте свои комментарий, если Вы скачали Призрачная красота через торрент бесплатно! Внесите свою лепту в развитие PiratBit!
    Комментировать посты могут только пользователи прошедшие не сложную регистрацию
    Показать сообщения:    

    Призрачная красота через торрент
    Скачать бесплатно Призрачная красота
    Призрачная красота скачать торрент
    Призрачная красота смотреть онлайн
    Cкачать фильм Призрачная красота бесплатно
    Призрачная красота скачать торрент в хорошем качестве
    Призрачная красота смотреть онлайн бесплатно в хорошем качестве


    Вы не можете начинать темы
    Вы не можете отвечать на сообщения
    Вы не можете редактировать свои сообщения
    Вы не можете удалять свои сообщения
    Вы не можете голосовать в опросах
    Вы не можете прикреплять файлы к сообщениям
    Вы можете скачивать файлы